Télécharger Face aux démons French

Qualité DVDRiP | FRENCH

Face aux démons

Face aux démons

Face aux démons

Origine du film : Néo-Zélandais
Réalisateur : Glenn Standring
Acteurs : Karl Urban, Katie Wolfe, Jonathon Hendry
Genre : Fantastique
Durée : 1h 30min
Année de production : 2000
Titre Original : The Irrefutable truth about demons
Note spectateurs : Face aux démons 2,9/5 (17)

Face aux démons

La petite amie d’Harry vient d’être assassinée par des démons. Maintenant, c’est lui qu’ils veulent tuer ! Dans son combat, il va trouver un renfort de poids en la personne de la troublante Benny…

Nom de la release : Face Aux Démons-Horreur.FR 35692″ style= »display:inline; »>

Qualité : DVDRiP
Format : XviD
Langue : Français
Taille totale : 700 Mo

1fichier
Télécharger

Uptobox
Télécharger

Free
Télécharger

Uploaded
Télécharger

Rapidgator
Télécharger

TurboBit
Télécharger

NFO :

Afficher / Masquer le texte 15ff44abae8ae3b76af2b035c7f4d66c » class= »text_spoiler » style= »display:none; »>General
Complete name : Face Aux DÄmons.avi
Format : AVI
Format/Info : Audio Video Interleave
File size : 691 MiB
Duration : 1h 26mn
Overall bit rate : 1 114 Kbps

Video
ID : 0
Format : MPEG-4 Visual
Format settings, BVOP : Yes
Format settings, QPel : No
Format settings, GMC : No warppoints
Format settings, Matrix : Default (H.263)
Codec ID : DX50
Codec ID/Hint : DivX 5
Duration : 1h 26mn
Bit rate : 1 005 Kbps
Width : 720 pixels
Height : 400 pixels
Display aspect ratio : 16:9
Frame rate : 25.000 fps
Color space : YUV
Chroma subsampling : 4:2:0
Bit depth : 8 bits
Scan type : Progressive
Compression mode : Lossy
Bits/(Pixel*Frame) : 0.140
Stream size : 623 MiB (90%)
Title : NeoVideoBeta10
Writing library : DivX 5.0.3 (UTC 2003-01-24)

Audio
ID : 1
Format : MPEG Audio
Format version : Version 1
Format profile : Layer 3
Mode : Joint stereo
Mode extension : MS Stereo
Codec ID : 55
Codec ID/Hint : MP3
Duration : 1h 26mn
Bit rate mode : Constant
Bit rate : 96.0 Kbps
Channel count : 2 channels
Sampling rate : 48.0 KHz
Compression mode : Lossy
Stream size : 59.6 MiB (9%)
Alignment : Split accross interleaves
Interleave, duration : 24 ms (0.60 video frame)
Title : NeoAudioBeta100

Jeux Gratuit
15354131_1854970838071206_1069261547_o.png