Télécharger Fedora

Qualité BDRiP mkv | MULTiLANGUES

Fedora

Fedora

Origine du film : Français, Allemand
Réalisateur : Billy Wilder
Acteurs : Marthe Keller, William Holden, Hildegard Knef
Genre : Drame, Romance
Durée : 1h56min
Date de sortie : 21 août 2013
Année de production : 1978
Distribué par : Carlotta Films
Note presse : Fedora 4,0/5
Note spectateurs : Fedora 3,9/5 (185)
Bande annonce :

f9f27c0deb073ca15bfccc6a8d2df06a

19536792″>Cliquez-ici pour voir la bande annonce f9f27c0deb073ca15bfccc6a8d2df06a »> 19536792

f9f27c0deb073ca15bfccc6a8d2df06a

Fedora

Un producteur américain tente de convaincre une star légendaire à la retraite, Fedora, d’effectuer un comeback retentissant.
97545″ style= »display:inline; »>

Fedora

Format : MKV

Fedora

Fedora 1978 MULTI.DVDRip.X264.AC3-HuSh

(1460 Mo)

Uptobox
Télécharger

Uploaded
Télécharger

TurboBit
Télécharger

Rapidgator
Télécharger

Uplea
Télécharger

1fichier
Télécharger

NFO :

Afficher / Masquer le texte b683e3d764f75963b8ffad7b77d3ea1f » class= »text_spoiler » style= »display:none; »>■General

Unique ID : 230378782123135317781051303329657261814 (0xAD5156E9BFFB92E081DB997C7B380EF6)

Complete name : G:TorrentFedora.1978.MULTI.DVDRip.X264.AC3-HuShFedora.1978.MULTI.DVDRip.X264.AC3-HuSh.mkv

Format : Matroska

Format version : Version 4 / Version 2

File size : 1.46 GiB

Duration : 1h 48mn

Overall bit rate mode : Variable

Overall bit rate : 1 914 Kbps

Movie name : Fedora.1978.MULTI.DVDRip.X264.AC3-HuSh

Encoded date : UTC 2015-01-19 11:09:33

Writing application : mkvmerge v6.3.0 (‘You can’t stop me!’) built on Jun 28 2013 20:09:41

Writing library : libebml v1.3.0 + libmatroska v1.4.0

Video

ID : 1

Format : AVC

Format/Info : Advanced Video Codec

Format profile : [email protected]

Format settings, CABAC : Yes

Format settings, ReFrames : 9 frames

Codec ID : V_MPEG4/ISO/AVC

Duration : 1h 48mn

Bit rate mode : Variable

Bit rate : 1 016 Kbps

Maximum bit rate : 17.5 Mbps

Width : 718 pixels

Height : 564 pixels

Display aspect ratio : 1.85:1

Original display aspect rat : 1.85:1

Frame rate mode : Constant

Frame rate : 25.000 fps

Color space : YUV

Chroma subsampling : 4:2:0

Bit depth : 8 bits

Scan type : Progressive

Bits/(Pixel*Frame) : 0.100

Stream size : 764 MiB (51%)

Title : Video

Writing library : x264 core 142 r2491

Encoding settings : cabac=1 / ref=9 / deblock=1:-1:-1 / analyse=0x3:0x133 / me=umh / subme=10 / psy=1 / psy_rd=1.00:0.10 / mixed_ref=1 / me_range=32 / chroma_me=1 / trellis=2 / 8x8dct=1 / cqm=0 / deadzone=21,11 / fast_pskip=0 / chroma_qp_offset=-3 / threads=6 / lookahead_threads=1 / sliced_threads=0 / nr=0 / decimate=1 / interlaced=0 / bluray_compat=0 / constrained_intra=0 / bframes=8 / b_pyramid=2 / b_adapt=2 / b_bias=0 / direct=3 / weightb=1 / open_gop=0 / weightp=2 / keyint=250 / keyint_min=25 / scenecut=40 / intra_refresh=0 / rc_lookahead=50 / rc=2pass / mbtree=1 / bitrate=1016 / ratetol=1.0 / qcomp=0.60 / qpmin=10 / qpmax=69 / qpstep=4 / cplxblur=20.0 / qblur=0.5 / vbv_maxrate=17500 / vbv_bufsize=17500 / nal_hrd=vbr / filler=0 / ip_ratio=1.40 / aq=1:1.00

Default : Yes

Forced : No

Audio #1

ID : 2

Format : AC-3

Format/Info : Audio Coding 3

Mode extension : CM (complete main)

Format settings, Endianness : Big

Codec ID : A_AC3

Duration : 1h 48mn

Bit rate mode : Constant

Bit rate : 448 Kbps

Channel(s) : 1 channel

Channel positions : Front: C

Sampling rate : 48.0 KHz

Compression mode : Lossy

Delay relative to video : -5ms

Stream size : 349 MiB (23%)

Title : Franτais (Mono AC3 @ 448 Kbps)

Language : French

Default : Yes

Forced : No

Audio #2

ID : 3

Format : AC-3

Format/Info : Audio Coding 3

Mode extension : CM (complete main)

Format settings, Endianness : Big

Codec ID : A_AC3

Duration : 1h 48mn

Bit rate mode : Constant

Bit rate : 448 Kbps

Channel(s) : 1 channel

Channel positions : Front: C

Sampling rate : 48.0 KHz

Compression mode : Lossy

Delay relative to video : -5ms

Stream size : 349 MiB (23%)

Title : Anglais (Mono AC3 @ 448 Kbps)

Language : English

Default : No

Forced : No

Text #1

ID : 4

Format : UTF-8

Codec ID : S_TEXT/UTF8

Codec ID/Info : UTF-8 Plain Text

Title : Franτais

Language : French

Default : No

Forced : No

Text #2

ID : 5

Format : UTF-8

Codec ID : S_TEXT/UTF8

Codec ID/Info : UTF-8 Plain Text

Default : Yes

Forced : Yes

Jeux Gratuit
15354131_1854970838071206_1069261547_o.png