Telecharger Félix & Cie [BLURAY 720p] French

BLURAY 720p | FRENCH | DTS

Félix & Cie

Félix & Cie

Félix & Cie

Origine du film : Espagnol
Réalisateur : Manuel Sicilia, Raul Garcia
Acteurs : David Robles, Cecilia Santiago, Abraham Aguilar
Genre : Animation, Comédie, Famille
Durée : 1h 37min
Année de production : 2008
Titre Original : El Lince Perdido
Note spectateurs : Félix & Cie 2,8/5 (21)
Bande annonce :

f61a001a9dcf550bd728dad6030706cb

19539367″>Cliquez-ici pour voir la bande annonce f61a001a9dcf550bd728dad6030706cb »> 19539367

f61a001a9dcf550bd728dad6030706cb

Félix & Cie

Les aventures de Félix le lynx, animal en voie de disparition, et de sa bande d’amis, tous plus givrés les uns que les autres. Ensemble, ils vont devoir lutter pour échapper à un redoutable chasseur engagé par un viel homme milliardaire qui veut capturer un couple d’animal de chaque espèce en voie d’extinction…

Nom de la release : Felix.Et.Cie.2008.FRENCH.720p.BluRay.DTS.5.1.x264-STEAL 18148″ style= »display:inline; »>

Qualité : BLURAY 720p
Format : MKV
Langue : Français
Sous-titre : Français
Découpé avec : Winrar
Nombre de fichiers : 4 Fichiers
Taille des fichiers : 999 Mo 715 Mo
Taille totale : 3712 Mo

[Liens Interchangeables]

1fichier.com
Télécharger

Uptobox.com
Télécharger

Free
Télécharger

Uploaded.net
Télécharger

TurboBit.net
Télécharger

[ 1 lien Premium ]

Uptobox.com Premium
Télécharger

1fichier.com Premium
Télécharger

Uploaded.net Premium
Télécharger

Free Premium
Télécharger

TurboBit.net Premium
Télécharger

NFO :

Afficher / Masquer le texte 0e3ed60577f67007cff677e8c794bdd7″ class= »text_spoiler » style= »display:none; »>Format : Matroska
Format version : Version 2
File size : 3.63 GiB
Duration : 1h 37mn
Overall bit rate : 5 337 Kbps
Movie name : Felix et Cie 2008 BluRay 720p VFF DTS 5.1 x264-STEAL
Encoded date : UTC 2012-12-24 03:44:19
Writing application : mkvmerge v5.0.1 ('Es ist Sommer') built on Oct 13 2011 12:47:36
Writing library : libebml v1.2.2 libmatroska v1.3.0

Video
ID : 1
Format : AVC
Format/Info : Advanced Video Codec
Format profile : [email protected]
Format settings, CABAC : Yes
Format settings, ReFrames : 9 frames
Codec ID : V_MPEG4/ISO/AVC
Duration : 1h 37mn
Bit rate : 3 721 Kbps
Width : 1 280 pixels
Height : 720 pixels
Display aspect ratio : 16:9
Frame rate : 25.000 fps
Color space : YUV
Chroma subsampling : 4:2:0
Bit depth : 8 bits
Scan type : Progressive
Bits/(Pixel*Frame) : 0.162
Stream size : 2.53 GiB (70%)
Title : FΘlix & Cie
Writing library : x264 core 128 r2M 198a7ea
Encoding settings : cabac=1 / ref=9 / deblock=1:2:2 / analyse=0x3:0x113 / me=umh / subme=11 / psy=1 / psy_rd=0.93:0.10 / mixed_ref=1 / me_range=128 / chroma_me=1 / trellis=2 / 8x8dct=1 / cqm=0 / deadzone=6,6 / fast_pskip=0 / chroma_qp_offset=-3 / threads=6 / lookahead_threads=1 / sliced_threads=0 / nr=0 / decimate=0 / interlaced=0 / bluray_compat=0 / constrained_intra=0 / bframes=8 / b_pyramid=2 / b_adapt=2 / b_bias=0 / direct=3 / weightb=1 / open_gop=1 / weightp=2 / keyint=250 / keyint_min=25 / scenecut=40 / intra_refresh=0 / rc_lookahead=250 / rc=crf / mbtree=1 / crf=18.0 / qcomp=0.75 / qpmin=0 / qpmax=69 / qpstep=4 / vbv_maxrate=50000 / vbv_bufsize=50000 / crf_max=0.0 / nal_hrd=none / ip_ratio=1.40 / aq=3:0.75
Language : Spanish
Default : No
Forced : No
Color primaries : BT.709-5, BT.1361, IEC 61966-2-4, SMPTE RP177
Transfer characteristics : BT.709-5, BT.1361
Matrix coefficients : BT.709-5, BT.1361, IEC 61966-2-4 709, SMPTE RP177

Audio
ID : 2
Format : DTS
Format/Info : Digital Theater Systems
Codec ID : A_DTS
Duration : 1h 37mn
Bit rate mode : Constant
Bit rate : 1 510 Kbps
Channel(s) : 6 channels
Channel positions : Front: L C R, Side: L R, LFE
Sampling rate : 48.0 KHz
Bit depth : 16 bits
Compression mode : Lossy
Stream size : 1.03 GiB (28%)
Title : VFF DTS 5.1
Language : French
Default : Yes
Forced : No

Menu
00:00:00.000 : en:00:00:00.000
00:05:33.000 : en:00:05:33.000
00:17:20.840 : en:00:17:20.840
00:24:06.200 : en:00:24:06.200
00:33:22.800 : en:00:33:22.800
00:44:55.560 : en:00:44:55.560
00:54:32.680 : en:00:54:32.680
01:07:52.000 : en:01:07:52.000
01:12:09.200 : en:01:12:09.200
01:18:00.680 : en:01:18:00.680
01:22:32.800 : en:01:22:32.800
01:29:56.800 : en:01:29:56.800