Telecharger Fenêtre sur cour [DVDRiP] French

(TRUEFRENCH = Vraie voix française)

Qualité BDRiP mkv | TRUEFRENCH

Fenêtre sur cour

Fenêtre sur cour

Origine du film : Américain
Réalisateur : Alfred Hitchcock
Acteurs : James Stewart, Grace Kelly, Wendell Corey
Genre : Policier, Thriller
Durée : 1h50min
Date de sortie : 25 avril 1955
Année de production : 1954
Titre Original : Rear Window
Note presse : Fenêtre sur cour 3,9/5
Note spectateurs : Fenêtre sur cour

; »>4,3/5 (11 143)
Bande annonce :

6c763213cb8d181ac1972445b366a870

19456599″>Cliquez-ici pour voir la bande annonce 6c763213cb8d181ac1972445b366a870″> 19456599

6c763213cb8d181ac1972445b366a870

Fenêtre sur cour

A cause d’une jambe cassée, le reporter-photographe L. B. Jeffries est contraint de rester chez lui dans un fauteuil roulant. Homme d’action et amateur d’aventure, il s’aperçoit qu’il peut tirer parti de son immobilité forcée en étudiant le comportement des habitants de l’immeuble qu’il occupe dans Greenwich Village. Et ses observations l’amènent à la conviction que Lars Thorwald, son voisin d’en face, a assassiné sa femme. Sa fiancée, Lisa Fremont, ne le prend tout d’abord pas au sérieux, ironisant sur l’excitation que lui procure sa surveillance, mais finit par se prendre au jeu…
104712″ style= »display:inline; »>

Fenêtre sur cour

Format : MKV
Sous-titres : Forcé pour les passages en langue étrangère.

Fenêtre sur cour

Rear.Window.1954.FRENCH.SUBFORCED.BRRip.x264.AC3-FREAKY

(1400 Mo)

Uptobox
Télécharger

Uploaded
Télécharger

TurboBit
Télécharger

Rapidgator
Télécharger

Uplea
Télécharger

1fichier
Télécharger

NFO :

Afficher / Masquer le texte 7d10711c87c3acaec5e310fd008cd61b » class= »text_spoiler » style= »display:none; »>General
Complete name : Rear.Window.1954.FRENCH.SUBFORCED.BRRip.x264.AC3-FREAKY.mkv
Format : Matroska
Format version : Version 2
File size : 1.37 GiB
Duration : 1h 52mn
Overall bit rate : 1 742 Kbps
Writing application : Lavf54.63.104
Writing library : Lavf54.63.104

Video
ID : 1
Format : AVC
Format/Info : Advanced Video Codec
Format profile : [email protected]
Format settings, CABAC : Yes
Format settings, ReFrames : 4 frames
Codec ID : V_MPEG4/ISO/AVC
Duration : 1h 52mn
Bit rate : 1 291 Kbps
Width : 624 pixels
Height : 352 pixels
Display aspect ratio : 16:9
Frame rate mode : Constant
Frame rate : 23.976 fps
Color space : YUV
Chroma subsampling : 4:2:0
Bit depth : 8 bits
Scan type : Progressive
Bits/(Pixel*Frame) : 0.245
Stream size : 1 014 MiB (72%)
Writing library : x264 core 123 r2189 35cf912
Encoding settings : cabac=1 / ref=3 / deblock=1:0:0 / analyse=0x3:0x133 / me=umh / subme=8 / psy=1 / psy_rd=1.00:0.00 / mixed_ref=1 / me_range=24 / chroma_me=1 / trellis=1 / 8x8dct=1 / cqm=0 / deadzone=21,11 / fast_pskip=1 / chroma_qp_offset=-2 / threads=3 / sliced_threads=0 / nr=0 / decimate=1 / interlaced=0 / bluray_compat=0 / constrained_intra=0 / bframes=3 / b_pyramid=2 / b_adapt=1 / b_bias=0 / direct=1 / weightb=1 / open_gop=0 / weightp=2 / keyint=250 / keyint_min=25 / scenecut=40 / intra_refresh=0 / rc_lookahead=40 / rc=2pass / mbtree=1 / bitrate=1291 / ratetol=1.0 / qcomp=0.60 / qpmin=10 / qpmax=51 / qpstep=4 / cplxblur=20.0 / qblur=0.5 / ip_ratio=1.40 / aq=1:1.00
Default : Yes
Forced : No

Audio
ID : 2
Format : AC-3
Format/Info : Audio Coding 3
Mode extension : CM (complete main)
Format settings, Endianness : Big
Codec ID : A_AC3
Duration : 1h 52mn
Bit rate mode : Constant
Bit rate : 448 Kbps
Channel(s) : 2 channels
Channel positions : Front: L R
Sampling rate : 48.0 KHz
Compression mode : Lossy
Delay relative to video : 5ms
Stream size : 361 MiB (26%)
Language : French
Default : Yes
Forced : No

Source : Rear.Window.1954.FRENCH.720p.BluRay.x264-ULSHD

Jeux Gratuit
15354131_1854970838071206_1069261547_o.png

Telecharger Fenêtre sur cour [DVDRiP] French

(TRUEFRENCH = Vraie voix française)

Qualité BDRiP mkv | TRUEFRENCH

Fenêtre sur cour

Fenêtre sur cour

Origine du film : Américain
Réalisateur : Alfred Hitchcock
Acteurs : James Stewart, Grace Kelly, Wendell Corey
Genre : Policier, Thriller
Durée : 1h50min
Date de sortie : 25 avril 1955
Année de production : 1954
Titre Original : Rear Window
Note presse : Fenêtre sur cour 3,9/5
Note spectateurs : Fenêtre sur cour

; »>4,3/5 (11 143)
Bande annonce :

6c763213cb8d181ac1972445b366a870

19456599″>Cliquez-ici pour voir la bande annonce 6c763213cb8d181ac1972445b366a870″> 19456599

6c763213cb8d181ac1972445b366a870

Fenêtre sur cour

A cause d’une jambe cassée, le reporter-photographe L. B. Jeffries est contraint de rester chez lui dans un fauteuil roulant. Homme d’action et amateur d’aventure, il s’aperçoit qu’il peut tirer parti de son immobilité forcée en étudiant le comportement des habitants de l’immeuble qu’il occupe dans Greenwich Village. Et ses observations l’amènent à la conviction que Lars Thorwald, son voisin d’en face, a assassiné sa femme. Sa fiancée, Lisa Fremont, ne le prend tout d’abord pas au sérieux, ironisant sur l’excitation que lui procure sa surveillance, mais finit par se prendre au jeu…
104712″ style= »display:inline; »>

Fenêtre sur cour

Format : MKV
Sous-titres : Forcé pour les passages en langue étrangère.

Fenêtre sur cour

Rear.Window.1954.FRENCH.SUBFORCED.BRRip.x264.AC3-FREAKY

(1400 Mo)

Uptobox
Télécharger

Uploaded
Télécharger

TurboBit
Télécharger

Rapidgator
Télécharger

Uplea
Télécharger

1fichier
Télécharger

NFO :

Afficher / Masquer le texte 7d10711c87c3acaec5e310fd008cd61b » class= »text_spoiler » style= »display:none; »>General
Complete name : Rear.Window.1954.FRENCH.SUBFORCED.BRRip.x264.AC3-FREAKY.mkv
Format : Matroska
Format version : Version 2
File size : 1.37 GiB
Duration : 1h 52mn
Overall bit rate : 1 742 Kbps
Writing application : Lavf54.63.104
Writing library : Lavf54.63.104

Video
ID : 1
Format : AVC
Format/Info : Advanced Video Codec
Format profile : [email protected]
Format settings, CABAC : Yes
Format settings, ReFrames : 4 frames
Codec ID : V_MPEG4/ISO/AVC
Duration : 1h 52mn
Bit rate : 1 291 Kbps
Width : 624 pixels
Height : 352 pixels
Display aspect ratio : 16:9
Frame rate mode : Constant
Frame rate : 23.976 fps
Color space : YUV
Chroma subsampling : 4:2:0
Bit depth : 8 bits
Scan type : Progressive
Bits/(Pixel*Frame) : 0.245
Stream size : 1 014 MiB (72%)
Writing library : x264 core 123 r2189 35cf912
Encoding settings : cabac=1 / ref=3 / deblock=1:0:0 / analyse=0x3:0x133 / me=umh / subme=8 / psy=1 / psy_rd=1.00:0.00 / mixed_ref=1 / me_range=24 / chroma_me=1 / trellis=1 / 8x8dct=1 / cqm=0 / deadzone=21,11 / fast_pskip=1 / chroma_qp_offset=-2 / threads=3 / sliced_threads=0 / nr=0 / decimate=1 / interlaced=0 / bluray_compat=0 / constrained_intra=0 / bframes=3 / b_pyramid=2 / b_adapt=1 / b_bias=0 / direct=1 / weightb=1 / open_gop=0 / weightp=2 / keyint=250 / keyint_min=25 / scenecut=40 / intra_refresh=0 / rc_lookahead=40 / rc=2pass / mbtree=1 / bitrate=1291 / ratetol=1.0 / qcomp=0.60 / qpmin=10 / qpmax=51 / qpstep=4 / cplxblur=20.0 / qblur=0.5 / ip_ratio=1.40 / aq=1:1.00
Default : Yes
Forced : No

Audio
ID : 2
Format : AC-3
Format/Info : Audio Coding 3
Mode extension : CM (complete main)
Format settings, Endianness : Big
Codec ID : A_AC3
Duration : 1h 52mn
Bit rate mode : Constant
Bit rate : 448 Kbps
Channel(s) : 2 channels
Channel positions : Front: L R
Sampling rate : 48.0 KHz
Compression mode : Lossy
Delay relative to video : 5ms
Stream size : 361 MiB (26%)
Language : French
Default : Yes
Forced : No

Source : Rear.Window.1954.FRENCH.720p.BluRay.x264-ULSHD

Jeux Gratuit
15354131_1854970838071206_1069261547_o.png