Telecharger Filmographie Sergueï Eisenstein [DVDRiP] French

Qualité DVDRiP | VOSTFR

Filmographie Sergueï Eisenstein

Filmographie Sergueï Eisenstein

Filmographie Sergueï Eisenstein

Origine des films : Russe
Genre : Drame, Historique
8 Films
+Octobre: Film historique, Film muet, VOSTFR, Russe, 1927, durée 1h40, N&B
+ La ligne générale: Emotion, Film muet, VOSTFR, Russe, 1929, durée 1h30, N&B
+ Que viva Mexico: Oeuvre expérimentale, Film muet, VOSTFR, Russe-Mexicain, 1932, durée 1h25, N&B
+ Ivan le terrible 1: Epopée, VOSTFR, Russe, 1945, durée 1h40, N&B
+ Ivan le terrible 2: Epopée, VO, Russe, 1958, durée 1h30, N&B avec une séquence en couleur
+ Le cuirassé Potemkine: Chef d’oeuvre, VOSTFR, Russe, 1938, durée 1h52, N&B
+ Alexandre Nevski: Epopée, VOSTFR, Russe, 1938, durée 1h52, N&B
+ La grève: Drame social, Film muet, VOSTFR, Russe, 1925, durée 1h18, N&B
Année de production : 1927 à 1958

Filmographie Sergueï Eisenstein

Dans cet article une Collection de 8 Films deSergueï Eisenstein. C’est un réalisateur russe de la période soviétique. Il est souvent considéré comme le « Père du montage ». 27422″ style= »display:inline; »>

Qualité : DVDRiP
Format : XviD
Langue : TRUEFRENCH
Taille : 700 Mo, 850 Mo, 1Go, 1.4 Go…
Taille totale : 9,3 Go

I- Télécharger le coffret de 8 films: Filmographie Sergueï Eisenstein en

1 seul lien premium (9.3 Go)

1fichier
Télécharger

Uptobox
Télécharger

Free
Télécharger

TurboBit
Télécharger

Mega
Télécharger

II- Télécharger film par film le coffret de 8 films: Filmographie Sergueï Eisenstein

Sergueï.Eisenstein.Octobre.VOSTFR&VOSTENG.TSC-Paradize

1fichier
Télécharger

Uptobox
Télécharger

Free
Télécharger

Uploaded
Télécharger

Rapidgator
Télécharger

TurboBit
Télécharger

Mega
Télécharger

NFO

Afficher / Masquer le texte 48a15f5e606d01f3d12a70eb808005f5″ class= »text_spoiler » style= »display:none; »>
___.
_ |__ __ __ ______ __________________ ___________
| __ | | / ___// __ _ __ _ __ / _ _ __
| _ | /___ \ ___/| | /| | ( ) | /
|___ /____//____ >___ >__| |__| ____/|__|
/ / /
—————————————————————————
Team TSC-Paradize
—————————————————————————

General
Complete name : Octobre-Eisenstein.mkv
Format : Matroska
File size : 1.42 GiB
Duration : 1h 39mn
Overall bit rate : 2 043 Kbps
Writing application : HandBrake svn3918
Writing library : libmkv 0.6.4.2

Video
ID : 1
Format : AVC
Format/Info : Advanced Video Codec
Format profile : [email protected]
Format settings, CABAC : Yes
Format settings, ReFrames : 4 frames
Format settings, GOP : M=3, N=8
Muxing mode : Container profile=[email protected]
Codec ID : V_MPEG4/ISO/AVC
Duration : 1h 39mn
Width : 718 pixels
Height : 576 pixels
Bits/(Pixel*Frame) : 0.178254
Display aspect ratio : 4:3
Original display aspect ratio : 4:3
Frame rate mode : Variable
Frame rate : 25.000 fps
Color space : YUV
Chroma subsampling : 4:2:0
Bit depth : 8 bits
Scan type : Progressive
Writing library : x264 core 114
Language : English
Color primaries : BT.601-6 525, BT.1358 525, BT.1700 NTSC, SMPTE 170M
Transfer characteristics : BT.709-5, BT.1361
Matrix coefficients : BT.601-6 525, BT.1358 525, BT.1700 NTSC, SMPTE 170M

Audio
ID : 2
Format : AAC
Format/Info : Advanced Audio Codec
Format version : Version 4
Format profile : LC
Format settings, SBR : No
Codec ID : A_AAC
Duration : 1h 39mn
Channel(s) : 2 channels
Channel positions : Front: L R
Sampling rate : 48.0 KHz

Text #1
ID : 3
Format : VobSub
Codec ID : S_VOBSUB
Codec ID/Info : The same subtitle format used on DVDs
Language : French

Text #2
ID : 4
Format : VobSub
Codec ID : S_VOBSUB
Codec ID/Info : The same subtitle format used on DVDs
Language : English

Menu
00:00:00.000 : Chapter 1
00:03:18.480 : Chapter 2
00:12:40.640 : Chapter 3
00:22:28.320 : Chapter 4
00:34:22.440 : Chapter 5
00:42:28.840 : Chapter 6
00:50:10.400 : Chapter 7
01:25:12.000 : Chapter 8

Sergueï.Eisenstein.La.Ligne.generale.1928.VOSTFR

1fichier
Télécharger

Uptobox
Télécharger

Free
Télécharger

Uploaded
Télécharger

Rapidgator
Télécharger

TurboBit
Télécharger

Mega
Télécharger

NFO

Afficher / Masquer le texte ef3f9c5eefee05ec427f042e419dd6bb » class= »text_spoiler » style= »display:none; »>Format : Matroska
File size : 2.68 GiB
Duration : 2h 0mn
Overall bit rate : 3 169 Kbps
Writing application : HandBrake 0.9.4

Video
ID : 1
Format : AVC
Format/Info : Advanced Video Codec
Format profile : [email protected]
Format settings, CABAC : Yes
Format settings, ReFrames : 2 frames
Muxing mode : Container profile=[email protected]
Codec ID : V_MPEG4/ISO/AVC
Duration : 2h 0mn
Width : 720 pixels
Height : 576 pixels
Display aspect ratio : 4:3
Frame rate : 25.000 fps
Standard : PAL
Resolution : 8 bits
Colorimetry : 4:2:0
Scan type : Progressive
Writing library : x264 core 79
Encoding settings : cabac=1 / ref=2 / deblock=1:0:0 /
analyse=0x1:0x111 / me=hex / subme=6 / psy=1 / psy_rd=1.0:0.0 / mixed_ref=0 /
me_range=16 / chroma_me=1 / trellis=0 / 8x8dct=0 / cqm=0 / deadzone=21,11 /
chroma_qp_offset=-2 / threads=6 / nr=0 / decimate=1 / mbaff=0 /
constrained_intra=0 / bframes=2 / b_pyramid=0 / b_adapt=1 / b_bias=0 /
direct=1 / wpredb=0 / wpredp=2 / keyint=250 / keyint_min=25 / scenecut=40 /
rc_lookahead=40 / rc=crf / mbtree=1 / crf=22.0 / qcomp=0.60 / qpmin=10 /
qpmax=51 / qpstep=4 / ip_ratio=1.40 / aq=1:1.00
Color primaries : BT.601-6 525, BT.1358 525, BT.1700 NTSC, SMPTE 170M
Transfer characteristics : BT.709-5, BT.1361
Matrix coefficients : BT.601-6 525, BT.1358 525, BT.1700 NTSC, SMPTE 170M

Audio
ID : 2
Format : AAC
Format/Info : Advanced Audio Codec
Format version : Version 4
Format profile : LC
Format settings, SBR : No
Codec ID : A_AAC
Duration : 2h 0mn
Channel(s) : 2 channels
Channel positions : L R
Sampling rate : 48.0 KHz

Text
ID : 3
Format : VobSub
Codec ID : S_VOBSUB
Codec ID/Info : The same subtitle format used on DVDs
Language : French

Sergueï.Eisenstein.Que.viva.Mexico.VOSTFR

1fichier
Télécharger

Uptobox
Télécharger

Free
Télécharger

Uploaded
Télécharger

Rapidgator
Télécharger

TurboBit
Télécharger

Mega
Télécharger

NFO

Afficher / Masquer le texte 3901ee9e4b62216758aad13ce321a597″ class= »text_spoiler » style= »display:none; »>
Format : AVI
Format/Info : Audio Video Interleave
Format profile : OpenDML
File size : 1.30 GiB
Duration : 1h 24mn
Overall bit rate : 2 206 Kbps
Writing application : Lavf52.94.0

Video
ID : 0
Format : AVC
Format/Info : Advanced Video Codec
Format profile : [email protected]
Format settings, CABAC : Yes
Format settings, ReFrames : 2 frames
Codec ID : H264
Duration : 1h 24mn
Bit rate : 2 000 Kbps
Width : 768 pixels
Height : 576 pixels
Display aspect ratio : 4:3
Frame rate mode : Variable
Frame rate : 25.000 fps
Color space : YUV
Chroma subsampling : 4:2:0
Bit depth : 8 bits
Scan type : Progressive
Bits/(Pixel*Frame) : 0.181
Stream size : 1.18 GiB (91%)
Writing library : x264 core 112 r1834 a51816a
Encoding settings : cabac=1 / ref=2 / deblock=1:0:0 / analyse=0x3:0x113 / me=hex / subme=6 / psy=1 / psy_rd=1.00:0.00 / mixed_ref=0 / me_range=16 / chroma_me=1 / trellis=0 / 8x8dct=1 / cqm=0 / deadzone=21,11 / fast_pskip=1 / chroma_qp_offset=-2 / threads=8 / sliced_threads=0 / nr=0 / decimate=1 / interlaced=0 / constrained_intra=0 / bframes=3 / b_pyramid=0 / b_adapt=1 / b_bias=0 / direct=3 / weightb=1 / open_gop=0 / weightp=2 / keyint=250 / keyint_min=25 / scenecut=40 / intra_refresh=0 / rc_lookahead=40 / rc=2pass / mbtree=1 / bitrate=2000 / ratetol=1.0 / qcomp=0.60 / qpmin=10 / qpmax=51 / qpstep=4 / cplxblur=20.0 / qblur=0.5 / ip_ratio=1.41 / aq=1:1.00

Audio
ID : 1
Format : MPEG Audio
Format version : Version 1
Format profile : Layer 3
Mode : Joint stereo
Mode extension : MS Stereo
Codec ID : 55
Codec ID/Hint : MP3
Duration : 1h 24mn
Bit rate mode : Constant
Bit rate : 192 Kbps
Channel(s) : 2 channels
Sampling rate : 44.1 KHz
Compression mode : Lossy
Stream size : 116 MiB (9%)
Alignment : Aligned on interleaves
Interleave, duration : 26 ms (0.65 video frame)

Sergueï.Eisenstein.Ivan.Le.Terrible.PartieI.VOSTFR.TSC-Paradize

1fichier
Télécharger

Uptobox
Télécharger

Free
Télécharger

Uploaded
Télécharger

Rapidgator
Télécharger

TurboBit
Télécharger

Mega
Télécharger

NFO

Afficher / Masquer le texte b934d1d17711d5e013e6789433ca4075″ class= »text_spoiler » style= »display:none; »>
Buserror – Team TSC-Paradize
—————————————————————————

General
Complete name : IvanLeTerrible.mkv
Format : Matroska
File size : 838 MiB
Duration : 1h 35mn
Overall bit rate : 1 232 Kbps
Writing application : HandBrake 0.9.3

Video
ID : 1
Format : AVC
Format/Info : Advanced Video Codec
Format profile : [email protected]
Format settings, CABAC : Yes
Format settings, ReFrames : 3 frames
Muxing mode : Container profile=[email protected]
Codec ID : V_MPEG4/ISO/AVC
Duration : 1h 35mn
Bit rate : 1 080 Kbps
Width : 718 pixels
Height : 576 pixels
Display aspect ratio : 4:3
Frame rate : 25.000 fps
Resolution : 24 bits
Colorimetry : 4:2:0
Scan type : Progressive
Bits/(Pixel*Frame) : 0.104
Stream size : 734 MiB (88%)
Writing library : x264 core 65
Encoding settings : cabac=1 / ref=3 / deblock=1:-2:-1 /
analyse=0x3:0x133 / me=umh / subme=9 / psy_rd=1.0:1.0 / mixed_ref=1 /
me_range=16 / chroma_me=1 / trellis=1 / 8x8dct=1 / cqm=0 / deadzone=21,11 /
chroma_qp_offset=-4 / threads=3 / nr=0 / decimate=1 / mbaff=0 / bframes=3 /
b_pyramid=1 / b_adapt=1 / b_bias=0 / direct=1 / wpredb=1 / keyint=250 /
keyint_min=25 / scenecut=40(pre) / rc=crf / crf=25.0 / qcomp=0.60 / qpmin=10
/ qpmax=51 / qpstep=4 / ip_ratio=1.40 / pb_ratio=1.30 / aq=1:1.00
colour_primaries : BT.601-6 525, BT.1358 525, BT.1700 NTSC, SMPTE 170M
transfer_characteristics : BT.709-5, BT.1361
matrix_coefficients : BT.601-6 525, BT.1358 525, BT.1700 NTSC, SMPTE 170M

Audio
ID : 2
Format : MPEG Audio
Format version : Version 1
Format profile : Layer 3
Codec ID : A_MPEG/L3
Codec ID/Hint : MP3
Duration : 1h 35mn
Bit rate mode : Constant
Bit rate : 128 Kbps
Channel(s) : 2 channels
Sampling rate : 48.0 KHz
Resolution : 16 bits
Stream size : 87.0 MiB (10%)
Language : Russian

Sergueï.Eisenstein.Ivan.Le.Terrible.PartieII.VO.TSC-Paradize

1fichier
Télécharger

Uptobox
Télécharger

Free
Télécharger

Uploaded
Télécharger

Rapidgator
Télécharger

TurboBit
Télécharger

Mega
Télécharger

NFO

Afficher / Masquer le texte b44ab1c4ca6105f37fdb19d6a43a0b6f » class= »text_spoiler » style= »display:none; »>
Buserror – Team TSC-Paradize
—————————————————————————

General
Complete name : IvanLeTerriblePart2.mkv
Format : Matroska
File size : 1.01 GiB
Duration : 1h 21mn
Overall bit rate : 1 777 Kbps
Writing application : HandBrake 0.9.4

Video
ID : 1
Format : AVC
Format/Info : Advanced Video Codec
Format profile : [email protected]
Format settings, CABAC : Yes
Format settings, ReFrames : 2 frames
Muxing mode : Container profile=[email protected]
Codec ID : V_MPEG4/ISO/AVC
Duration : 1h 21mn
Width : 720 pixels
Height : 544 pixels
Display aspect ratio : 4:3
Frame rate : 25.000 fps
Resolution : 8 bits
Colorimetry : 4:2:0
Scan type : Progressive
Writing library : x264 core 79 r1347 5ddd61b
Encoding settings : cabac=1 / ref=2 / deblock=1:0:0 /
analyse=0x1:0x111 / me=hex / subme=6 / psy=1 / psy_rd=1.0:0.0 / mixed_ref=0 /
me_range=16 / chroma_me=1 / trellis=0 / 8x8dct=0 / cqm=0 / deadzone=21,11 /
chroma_qp_offset=-2 / threads=3 / nr=0 / decimate=1 / mbaff=0 /
constrained_intra=0 / bframes=2 / b_pyramid=0 / b_adapt=1 / b_bias=0 /
direct=1 / wpredb=0 / wpredp=2 / keyint=250 / keyint_min=25 / scenecut=40 /
rc_lookahead=40 / rc=crf / mbtree=1 / crf=20.5 / qcomp=0.60 / qpmin=10 /
qpmax=51 / qpstep=4 / ip_ratio=1.40 / aq=1:1.00
Color primaries : BT.601-6 525, BT.1358 525, BT.1700 NTSC, SMPTE 170M
Transfer characteristics : BT.709-5, BT.1361
Matrix coefficients : BT.601-6 525, BT.1358 525, BT.1700 NTSC, SMPTE 170M

Audio
ID : 2
Format : AAC
Format/Info : Advanced Audio Codec
Format version : Version 4
Format profile : LC
Format settings, SBR : No
Codec ID : A_AAC
Duration : 1h 21mn
Channel(s) : 2 channels
Channel positions : L R
Sampling rate : 48.0 KHz
Language : Russian

Text
ID : 3
Format : VobSub
Codec ID : S_VOBSUB
Codec ID/Info : The same subtitle format used on DVDs
Language : French

Sergueï.Eisenstein.Le.Cuirasse.Potemkine.VOSTFR

1fichier
Télécharger

Uptobox
Télécharger

Free
Télécharger

Uploaded
Télécharger

Rapidgator
Télécharger

TurboBit
Télécharger

Mega
Télécharger

NFO

Afficher / Masquer le texte 5f6d41b21ad645977f1d7dcd6072d3b4″ class= »text_spoiler » style= »display:none; »>
Format : Matroska
File size : 1.07 GiB
Duration : 1h 11mn
Overall bit rate : 2 151 Kbps
Writing application : HandBrake 0.9.4

Video
ID : 1
Format : AVC
Format/Info : Advanced Video Codec
Format profile : [email protected]
Format settings, CABAC : Yes
Format settings, ReFrames : 2 frames
Muxing mode : Container profile=[email protected]
Codec ID : V_MPEG4/ISO/AVC
Duration : 1h 11mn
Width : 706 pixels
Height : 576 pixels
Display aspect ratio : 4:3
Original display aspect ratio : 4:3
Frame rate : 25.000 fps
Resolution : 24 bits
Colorimetry : 4:2:0
Scan type : Progressive
Writing library : x264 core 79
Encoding settings : cabac=1 / ref=2 / deblock=1:0:0 /
analyse=0x1:0x111 / me=hex / subme=6 / psy=1 / psy_rd=1.0:0.0 / mixed_ref=0 /
me_range=16 / chroma_me=1 / trellis=0 / 8x8dct=0 / cqm=0 / deadzone=21,11 /
chroma_qp_offset=-2 / threads=6 / nr=0 / decimate=1 / mbaff=0 /
constrained_intra=0 / bframes=2 / b_pyramid=0 / b_adapt=1 / b_bias=0 /
direct=1 / wpredb=0 / wpredp=2 / keyint=250 / keyint_min=25 / scenecut=40 /
rc_lookahead=40 / rc=crf / mbtree=1 / crf=22.0 / qcomp=0.60 / qpmin=10 /
qpmax=51 / qpstep=4 / ip_ratio=1.40 / aq=1:1.00
colour_primaries : BT.601-6 525, BT.1358 525, BT.1700 NTSC, SMPTE 170M
transfer_characteristics : BT.709-5, BT.1361
matrix_coefficients : BT.601-6 525, BT.1358 525, BT.1700 NTSC, SMPTE 170M

Audio
ID : 2
Format : AAC
Format/Info : Advanced Audio Codec
Format version : Version 4
Format profile : LC
Format settings, SBR : No
Codec ID : A_AAC
Duration : 1h 11mn
Channel(s) : 2 channels
Channel positions : L R
Sampling rate : 48.0 KHz
Resolution : 16 bits

Text
ID : 3
Format : VobSub
Codec ID : S_VOBSUB
Codec ID/Info : The same subtitle format used on DVDs
Language : French

Sergueï.Eisenstein.Alexandre.Nevski.VOSTFR.TSC-Paradize

1fichier
Télécharger

Uptobox
Télécharger

Free
Télécharger

Uploaded
Télécharger

Rapidgator
Télécharger

TurboBit
Télécharger

Mega
Télécharger

NFO

Afficher / Masquer le texte dee5da538f67533a8ac3158602709dda » class= »text_spoiler » style= »display:none; »>
Buserror – Team TSC-Paradize
—————————————————————————

General
Complete name : AlexandreNevski.mkv
Format : Matroska
File size : 1.58 GiB
Duration : 1h 43mn
Overall bit rate : 2 188 Kbps
Writing application : HandBrake 0.9.3

Video
ID : 1
Format : AVC
Format/Info : Advanced Video Codec
Format profile : [email protected]
Format settings, CABAC : Yes
Format settings, ReFrames : 3 frames
Muxing mode : Container profile=[email protected]
Codec ID : V_MPEG4/ISO/AVC
Duration : 1h 43mn
Bit rate : 2 016 Kbps
Width : 712 pixels
Height : 576 pixels
Display aspect ratio : 4:3
Frame rate : 25.000 fps
Resolution : 24 bits
Colorimetry : 4:2:0
Scan type : Progressive
Bits/(Pixel*Frame) : 0.197
Stream size : 1.46 GiB (92%)
Writing library : x264 core 65
Encoding settings : cabac=1 / ref=3 / deblock=1:-2:-1 /
analyse=0x3:0x133 / me=umh / subme=9 / psy_rd=1.0:1.0 / mixed_ref=1 /
me_range=16 / chroma_me=1 / trellis=1 / 8x8dct=1 / cqm=0 / deadzone=21,11 /
chroma_qp_offset=-4 / threads=3 / nr=0 / decimate=1 / mbaff=0 / bframes=3 /
b_pyramid=1 / b_adapt=1 / b_bias=0 / direct=1 / wpredb=1 / keyint=250 /
keyint_min=25 / scenecut=40(pre) / rc=crf / crf=24.5 / qcomp=0.60 / qpmin=10
/ qpmax=51 / qpstep=4 / ip_ratio=1.40 / pb_ratio=1.30 / aq=1:1.00
colour_primaries : BT.601-6 525, BT.1358 525, BT.1700 NTSC, SMPTE 170M
transfer_characteristics : BT.709-5, BT.1361
matrix_coefficients : BT.601-6 525, BT.1358 525, BT.1700 NTSC, SMPTE 170M

Audio
ID : 2
Format : MPEG Audio
Format version : Version 1
Format profile : Layer 3
Codec ID : A_MPEG/L3
Codec ID/Hint : MP3
Duration : 1h 43mn
Bit rate mode : Constant
Bit rate : 128 Kbps
Channel(s) : 2 channels
Sampling rate : 48.0 KHz
Resolution : 16 bits
Stream size : 94.9 MiB (6%)

Sergueï.Eisenstein.La.Grève.VOSTFR.TSC-Paradize

1fichier
Télécharger

Uptobox
Télécharger

Free
Télécharger

Uploaded
Télécharger

Rapidgator
Télécharger

TurboBit
Télécharger

Mega
Télécharger

NFO

Afficher / Masquer le texte 6e983b5833ffa442a3ff0c5bd0b9d0e2″ class= »text_spoiler » style= »display:none; »>
___.
_ |__ __ __ ______ __________________ ___________
| __ | | / ___// __ _ __ _ __ / _ _ __
| _ | /___ \ ___/| | /| | ( ) | /
|___ /____//____ >___ >__| |__| ____/|__|
/ / /
—————————————————————————
Team TSC-Paradize
—————————————————————————

General
Complete name : laGreve.mkv
Format : Matroska
File size : 1.29 GiB
Duration : 1h 19mn
Overall bit rate : 2 328 Kbps
Writing application : HandBrake svn3284

Video
ID : 1
Format : AVC
Format/Info : Advanced Video Codec
Format profile : [email protected]
Format settings, CABAC : Yes
Format settings, ReFrames : 2 frames
Format_Settings_GOP : M=3, N=10
Muxing mode : Container profile=[email protected]
Codec ID : V_MPEG4/ISO/AVC
Duration : 1h 19mn
Width : 702 pixels
Height : 574 pixels
Display aspect ratio : 4:3
Original display aspect ratio : 4:3
Frame rate mode : Variable
Frame rate : 25.000 fps
Resolution : 8 bits
Colorimetry : 4:2:0
Scan type : Progressive
Writing library : x264 core 94
Encoding settings : cabac=1 / ref=2 / deblock=1:0:0
/ analyse=0x1:0x111 / me=hex / subme=6 / psy=1 / psy_rd=1.00:0.00
/ mixed_ref=0 / me_range=16 / chroma_me=1 / trellis=0 / 8x8dct=0 / cqm=0
/ deadzone=21,11 / fast_pskip=1 / chroma_qp_offset=-2 / threads=3
/ sliced_threads=0 / nr=0 / decimate=1 / interlaced=0 / constrained_intra=0
/ bframes=2 / b_pyramid=0 / b_adapt=1 / b_bias=0 / direct=1 / wpredb=0
/ wpredp=2 / keyint=250 / keyint_min=25 / scenecut=40 / intra_refresh=0
/ rc_lookahead=40 / rc=crf / mbtree=1 / crf=20.0 / qcomp=0.60 / qpmin=10
/ qpmax=51 / qpstep=4 / ip_ratio=1.40 / aq=1:1.00
Color primaries : BT.601-6 525, BT.1358 525, BT.1700 NTSC, SMPTE 170M
Transfer characteristics : BT.709-5, BT.1361
Matrix coefficients : BT.601-6 525, BT.1358 525, BT.1700 NTSC, SMPTE 170M

Audio
ID : 2
Format : AAC
Format/Info : Advanced Audio Codec
Format version : Version 4
Format profile : LC
Format settings, SBR : No
Codec ID : A_AAC
Duration : 1h 19mn
Channel(s) : 2 channels
Channel positions : Front: L R
Sampling rate : 48.0 KHz
Language : English

Jeux Gratuit
15354131_1854970838071206_1069261547_o.png