Telecharger Final Girl : La dernière proie [BLURAY 720p] French

Qualité BLURAY 720p | FRENCH | son DTS

Final Girl : La dernière proie

Final Girl : La dernière proie

Origine du film : Américain, Canadien
Réalisateur : Tyler Shields
Acteurs : Abigail Breslin, Alexander Ludwig, Wes Bentley
Genre : Thriller, Action, Drame
Durée : 1h30min
Année de production : 2014
Titre Original : Final Girl
Distribué par : Marco Polo Production
Note spectateurs : Final Girl : La dernière proie

; »>3,1/5 (2)
Bande annonce :

62551ef67e1a0b56f654eaa76b6be14d

19546289″>Cliquez-ici pour voir la bande annonce 62551ef67e1a0b56f654eaa76b6be14d »> 19546289

62551ef67e1a0b56f654eaa76b6be14d

Final Girl : La dernière proie

Nouvelle au lycée, Veronica est une fille timide et vulnérable. Elle semble être la cible parfaite d’une bande d’adolescents, qui attirent les filles pour les chasser et les tuer. La règle est simple : la chasse commence quand Veronica est lâchée dans les bois avec trois minutes d’avance. Ce que les garçons ignorent, c’est que Veronica est un assassin en formation, et elle a choisi de tuer ces garçons pour son test final…
90424″ style= »display:inline; »>

Final Girl : La dernière proie

Format : MKV
Découpé avec : Winrar

Final Girl : La dernière proie

Final.Girl.2015.FRENCH.720p.BluRay.x264-ULSHD

(3352 Mo)

[Liens Interchangeables entre hébergeurs: 3x 1000 Mo + 1x 352 Mo]

Uptobox
Télécharger

Uplea
Télécharger

1fichier
Télécharger

Uploaded
Télécharger

Rapidgator
Télécharger

TurboBit
Télécharger

[Liens PREMIUM]

Uptobox
Télécharger

Uplea
Télécharger

1fichier
Télécharger

Uploaded
Télécharger

Rapidgator
Télécharger

TurboBit
Télécharger

NFO :

Afficher / Masquer le texte c758c7f0c35e74c4ac6a71f246bd19cd » class= »text_spoiler » style= »display:none; »>General
Format version : Version 2
File size : 3.27 GiB
Duration : 1h 24mn
Overall bit rate : 5 567 Kbps
Writing application : mkvmerge v6.6.0 (‘The Edge Of The In Between’) built on Dec 1 2013 17:55:00
Writing library : libebml v1.3.0 + libmatroska v1.4.1

Video
ID : 1
Format : AVC
Format/Info : Advanced Video Codec
Format profile : [email protected]
Format settings, CABAC : Yes
Format settings, ReFrames : 5 frames
Codec ID : V_MPEG4/ISO/AVC
Duration : 1h 24mn
Bit rate : 4 060 Kbps
Width : 1 280 pixels
Height : 544 pixels
Display aspect ratio : 2.35:1
Frame rate mode : Constant
Frame rate : 23.976 fps
Color space : YUV
Chroma subsampling : 4:2:0
Bit depth : 8 bits
Scan type : Progressive
Bits/(Pixel*Frame) : 0.243
Stream size : 2.32 GiB (71%)
Writing library : x264 core 146 r2538 121396c
Encoding settings : cabac=1 / ref=5 / deblock=1:0:0 / analyse=0x3:0x113 / me=umh / subme=8 / psy=1 / psy_rd=1.00:0.00 / mixed_ref=1 / me_range=16 / chroma_me=1 / trellis=1 / 8x8dct=1 / cqm=0 / deadzone=21,11 / fast_pskip=1 / chroma_qp_offset=-2 / threads=18 / lookahead_threads=3 / sliced_threads=0 / nr=0 / decimate=1 / interlaced=0 / bluray_compat=0 / constrained_intra=0 / bframes=3 / b_pyramid=2 / b_adapt=2 / b_bias=0 / direct=3 / weightb=1 / open_gop=0 / weightp=2 / keyint=240 / keyint_min=24 / scenecut=40 / intra_refresh=0 / rc_lookahead=50 / rc=2pass / mbtree=1 / bitrate=4060 / ratetol=1.0 / qcomp=0.60 / qpmin=0 / qpmax=69 / qpstep=4 / cplxblur=20.0 / qblur=0.5 / ip_ratio=1.40 / aq=1:1.00
Language : English
Default : Yes
Forced : No

Audio
ID : 2
Format : DTS
Format/Info : Digital Theater Systems
Mode : 16
Format settings, Endianness : Big
Codec ID : A_DTS
Duration : 1h 24mn
Bit rate mode : Constant
Bit rate : 1 509 Kbps
Channel(s) : 6 channels
Channel positions : Front: L C R, Side: L R, LFE
Sampling rate : 48.0 KHz
Bit depth : 24 bits
Compression mode : Lossy
Stream size : 909 MiB (27%)
Title : French DTS 1509kbps
Language : French
Default : Yes
Forced : No

Text
ID : 3
Format : UTF-8
Codec ID : S_TEXT/UTF8
Codec ID/Info : UTF-8 Plain Text
Title : Forced
Language : French
Default : Yes
Forced : Yes

Menu
00:00:00.000 : en:00:00:00.000
00:03:46.893 : en:00:03:46.893
00:10:46.938 : en:00:10:46.938
00:15:04.320 : en:00:15:04.320
00:22:16.126 : en:00:22:16.126
00:29:16.964 : en:00:29:16.964
00:38:13.750 : en:00:38:13.750
00:52:14.673 : en:00:52:14.673
00:59:40.744 : en:00:59:40.744
01:07:20.161 : en:01:07:20.161
01:11:54.393 : en:01:11:54.393
01:17:25.975 : en:01:17:25.975

Jeux Gratuit
15354131_1854970838071206_1069261547_o.png