Telecharger Flash Gordon [DVDRiP] French

(TRUEFRENCH = Vraie voix française)

Qualité BDRiP mkv | MULTiLANGUES (Avec TRUEFRENCH)

Flash Gordon

Flash Gordon

Origine du film : Américain, Britannique
Réalisateur : Mike Hodges
Acteurs : Sam J. Jones, Max von Sydow, Melody Anderson
Genre : Science fiction, Fantastique, Aventure
Durée : 1h50min
Date de sortie : 28 janvier 1981
Année de production : 1980
Note spectateurs : Flash Gordon

; »>2,6/5 (219)
Bande annonce :

605f56c664941eacb4180ad681e774d3

19440968″>Cliquez-ici pour voir la bande annonce 605f56c664941eacb4180ad681e774d3″> 19440968

605f56c664941eacb4180ad681e774d3

Flash Gordon

Le footballeur Flash Gordon et ses amis, le docteur Zarkov et Dale Arden, sont fait prisonniers par Ming, empereur de la galaxie Mongo. Ils trouvent une alliée, la fille de Ming, qui va les sauver de la mort certaine. Celle-ci a en tête bien d’autres projets pour Flash Gordon.
101664″ style= »display:inline; »>

Flash Gordon

Format : MKV

Flash Gordon

Flash Gordon 1980 MULTI.BRRip.x264.AC3-HuSh

(1370 Mo)

Uptobox
Télécharger

Uploaded
Télécharger

TurboBit
Télécharger

Rapidgator
Télécharger

Uplea
Télécharger

1fichier
Télécharger

NFO :

Afficher / Masquer le texte 568e9141ed7c1d1875a7863cc9d54559″ class= »text_spoiler » style= »display:none; »>■General

Unique ID : 198014500701269619911983212749591736335 (0x94F834A4524A21DDB8A39475C4C8F00F)

Complete name : G:TorrentFlash.Gordon.1980.MULTI.BRRip.x264.AC3-HuShFlash.Gordon.1980.MULTI.BRRip.x264.AC3-HuSh.mkv

Format : Matroska

Format version : Version 2

File size : 1.37 GiB

Duration : 1h 51mn

Overall bit rate mode : Variable

Overall bit rate : 1 758 Kbps

Movie name : Flash.Gordon.1980.MULTI.BRRip.x264.AC3-HuSh

Encoded date : UTC 2015-01-24 17:37:11

Writing application : mkvmerge v3.2.0 (‘Beginnings’) built on Feb 12 2010 16:46:17

Writing library : libebml v0.7.9 + libmatroska v0.8.1

Video

ID : 1

Format : AVC

Format/Info : Advanced Video Codec

Format profile : [email protected]

Format settings, CABAC : Yes

Format settings, ReFrames : 8 frames

Codec ID : V_MPEG4/ISO/AVC

Duration : 1h 51mn

Bit rate mode : Variable

Bit rate : 1 372 Kbps

Maximum bit rate : 17.5 Mbps

Width : 720 pixels

Height : 304 pixels

Display aspect ratio : 2.35:1

Original display aspect rat : 2.35:1

Frame rate mode : Constant

Frame rate : 24.000 fps

Color space : YUV

Chroma subsampling : 4:2:0

Bit depth : 8 bits

Scan type : Progressive

Bits/(Pixel*Frame) : 0.261

Stream size : 1.04 GiB (76%)

Writing library : x264 core 144 r2525

Encoding settings : cabac=1 / ref=8 / deblock=1:-1:-1 / analyse=0x3:0x133 / me=umh / subme=9 / psy=1 / psy_rd=1.00:0.00 / mixed_ref=1 / me_range=32 / chroma_me=1 / trellis=2 / 8x8dct=1 / cqm=0 / deadzone=21,11 / fast_pskip=0 / chroma_qp_offset=-2 / threads=6 / lookahead_threads=1 / sliced_threads=0 / nr=0 / decimate=1 / interlaced=0 / bluray_compat=0 / constrained_intra=0 / bframes=3 / b_pyramid=2 / b_adapt=2 / b_bias=0 / direct=3 / weightb=1 / open_gop=1 / weightp=2 / keyint=240 / keyint_min=24 / scenecut=40 / intra_refresh=0 / rc_lookahead=60 / rc=2pass / mbtree=1 / bitrate=1372 / ratetol=1.0 / qcomp=0.60 / qpmin=10 / qpmax=69 / qpstep=4 / cplxblur=20.0 / qblur=0.5 / vbv_maxrate=17500 / vbv_bufsize=17500 / nal_hrd=vbr / filler=0 / ip_ratio=1.40 / aq=1:1.00

Language : English

Default : Yes

Forced : No

Audio #1

ID : 2

Format : AC-3

Format/Info : Audio Coding 3

Mode extension : CM (complete main)

Format settings, Endianness : Big

Codec ID : A_AC3

Duration : 1h 51mn

Bit rate mode : Constant

Bit rate : 192 Kbps

Channel(s) : 2 channels

Channel positions : Front: L R

Sampling rate : 48.0 KHz

Compression mode : Lossy

Stream size : 153 MiB (11%)

Language : French

Default : Yes

Forced : No

Audio #2

ID : 3

Format : AC-3

Format/Info : Audio Coding 3

Mode extension : CM (complete main)

Format settings, Endianness : Big

Codec ID : A_AC3

Duration : 1h 51mn

Bit rate mode : Constant

Bit rate : 192 Kbps

Channel(s) : 2 channels

Channel positions : Front: L R

Sampling rate : 48.0 KHz

Compression mode : Lossy

Stream size : 153 MiB (11%)

Language : English

Default : No

Forced : No

Text

ID : 4

Format : UTF-8

Codec ID : S_TEXT/UTF8

Codec ID/Info : UTF-8 Plain Text

Language : French

Default : No

Forced : No

Jeux Gratuit
15354131_1854970838071206_1069261547_o.png