Telecharger Flic ou Zombie [DVDRiP] French

(TRUEFRENCH = Vraie voix française)

Qualité DVDRiP | TRUEFRENCH

Flic ou Zombie

Flic ou Zombie

Flic ou Zombie

Origine du film : Américain
Réalisateur : Mark Goldblatt
Acteurs : Keye Luke, Lindsay Frost, Joe Piscopo
Genre : Action
Durée : 1h 26min
Année de production : 1988
Titre Original : Dead Heat
Note spectateurs : Flic ou Zombie

; »>2,9/5 (31)

Flic ou Zombie

Mortis et Bigelow, deux détectives de Los Angeles, sont à la poursuite de gangsters ayant commis plusieurs braquages. Ils les surprennent en pleine attaque d’une bijouterie et parviennent, non sans mal, à les abattre. Le médecin légiste remarque avec horreur que les cadavres autopsiés sont déjà morts 8 jours auparavant… 36672″ style= »display:inline; »>

Qualité : DVDRiP
Format : XviD
Langue : Français
Taille totale : 700 Mo

1fichier
Télécharger

Uptobox
Télécharger

Free
Télécharger

Uploaded
Télécharger

Rapidgator
Télécharger

TurboBit
Télécharger

NFO :

Afficher / Masquer le texte 33dc4aa803a600dac65cc9bf22f342d5″ class= »text_spoiler » style= »display:none; »>General

Complete name : C:UsersalexisDownloadspour bien uploaderFlic ou zombie

Format : AVI

Format/Info : Audio Video Interleave

File size : 913 MiB

Duration : 1h 35mn

Overall bit rate : 1 341 Kbps

Writing application : Lavf52.31.0

Video

ID : 0

Format : MPEG-4 Visual

Format profile : [email protected]

Format settings, BVOP : No

Format settings, QPel : No

Format settings, GMC : No warppoints

Format settings, Matrix : Default (H.263)

Codec ID : FMP4

Duration : 1h 35mn

Bit rate : 1 200 Kbps

Width : 720 pixels

Height : 576 pixels

Display aspect ratio : 4:3

Frame rate : 25.000 fps

Standard : PAL

Color space : YUV

Chroma subsampling : 4:2:0

Bit depth : 8 bits

Scan type : Progressive

Compression mode : Lossy

Bits/(Pixel*Frame) : 0.116

Stream size : 817 MiB (89%)

Writing library : Lavc52.20.0

Audio

ID : 1

Format : MPEG Audio

Format version : Version 1

Format profile : Layer 3

Mode : Joint stereo

Mode extension : MS Stereo

Codec ID : 55

Codec ID/Hint : MP3

Duration : 1h 35mn

Bit rate mode : Constant

Bit rate : 128 Kbps

Channel(s) : 2 channels

Sampling rate : 48.0 KHz

Compression mode : Lossy

Stream size : 87.1 MiB (10%)

Alignment : Aligned on interleaves

Interleave, duration : 24 ms (0.60 video frame)

Jeux Gratuit
15354131_1854970838071206_1069261547_o.png