Telecharger Flight Plan [BLURAY 720p] French

Qualité BLURAY 720p | FRENCH

Flight Plan

Flight Plan

Origine du film : Américain
Réalisateur : Robert Schwentke
Acteurs : Jodie Foster, Peter Sarsgaard, Sean Bean
Genre : Thriller, Drame
Durée : 1h38min
Date de sortie : 9 novembre 2005
Année de production : 2004
Distribué par : Buena Vista International
Note presse : Flight Plan 2,9/5
Note spectateurs : Flight Plan

; »>2,7/5 (5 375)
Bande annonce :

786bafc1ceb200ffabae6e03d72996f3

19418763″>Cliquez-ici pour voir la bande annonce 786bafc1ceb200ffabae6e03d72996f3″> 19418763

786bafc1ceb200ffabae6e03d72996f3

Flight Plan

Kyle Pratt affronte le pire cauchemar qui soit : sa fille de six ans, Julia, disparaît sans laisser de traces… alors qu’elles se trouvent à plus de 11 000 mètres d’altitude, dans un avion, entre Berlin et New York…Déjà ébranlée par la mort soudaine de son mari, Kyle lutte désespérément pour prouver à l’équipage et aux passagers, sceptiques, qu’elle est saine d’esprit, tout en finissant par se poser des questions…
101941″ style= »display:inline; »>

Flight Plan

Format : MKV
Découpé avec : Winrar

Flight Plan

Flight.Plan.2005.FRENCH.720p.BluRay.x264.AC3-GAIA

(4475 Mo)

[Liens Interchangeables entre hébergeurs: 4x 1000 Mo + 1x 475 Mo]

Uptobox
Télécharger

Uplea
Télécharger

1fichier
Télécharger

Uploaded
Télécharger

Rapidgator
Télécharger

TurboBit
Télécharger

[ Liens Premium ]

Uptobox
Télécharger

Uplea
Télécharger

1fichier
Télécharger

Uploaded
Télécharger

TurboBit
Télécharger

NFO :

Afficher / Masquer le texte e236bd1e320d3058d22420f1580f4532″ class= »text_spoiler » style= »display:none; »>Flight Plan 2005 720p BluRay DD 5.1 x264-GAÏA.zone-telechargement.com.mkv
Format : Matroska
Format version : Version 1
File size : 4.37 GiB
Duration : 1h 38mn
Overall bit rate : 6 382 Kbps
Encoded date : UTC 2009-01-22 11:47:13
Writing application : mkvmerge v2.4.2 (‘Oh My God’) built on Jan 18 2009 17:30:28
Writing library : libebml v0.7.7 + libmatroska v0.8.1

Video
ID : 1
Format : AVC
Format/Info : Advanced Video Codec
Format profile : [email protected]
Format settings, CABAC : Yes
Format settings, ReFrames : 4 frames
Codec ID : V_MPEG4/ISO/AVC
Duration : 1h 38mn
Bit rate : 5 739 Kbps
Width : 1 280 pixels
Height : 720 pixels
Display aspect ratio : 16:9
Frame rate mode : Constant
Frame rate : 23.976 fps
Color space : YUV
Chroma subsampling : 4:2:0
Bit depth : 8 bits
Scan type : Progressive
Bits/(Pixel*Frame) : 0.260
Stream size : 3.85 GiB (88%)
Writing library : x264 core 65 r1077M e46f648
Encoding settings : cabac=1 / ref=4 / deblock=1:-3:-3 / analyse=0x3:0x113 / me=umh / subme=9 / psy_rd=1.2:0.0 / mixed_ref=0 / me_range=24 / chroma_me=1 / trellis=2 / 8x8dct=1 / cqm=0 / deadzone=21,11 / chroma_qp_offset=-2 / threads=3 / nr=0 / decimate=1 / mbaff=0 / bframes=3 / b_pyramid=1 / b_adapt=2 / b_bias=0 / direct=3 / wpredb=1 / keyint=250 / keyint_min=25 / scenecut=40(pre) / rc=2pass / bitrate=5739 / ratetol=1.0 / qcomp=0.60 / qpmin=10 / qpmax=51 / qpstep=4 / cplxblur=20.0 / qblur=0.5 / vbv_maxrate=50000 / vbv_bufsize=50000 / ip_ratio=1.40 / pb_ratio=1.30 / aq=1:1.00
Language : English
Default : Yes
Forced : No

Audio
ID : 2
Format : AC-3
Format/Info : Audio Coding 3
Mode extension : CM (complete main)
Format settings, Endianness : Big
Codec ID : A_AC3
Duration : 1h 38mn
Bit rate mode : Constant
Bit rate : 640 Kbps
Channel(s) : 6 channels
Channel positions : Front: L C R, Side: L R, LFE
Sampling rate : 48.0 KHz
Compression mode : Lossy
Stream size : 449 MiB (10%)
Language : French
Default : Yes
Forced : No

Text
ID : 3
Format : UTF-8
Codec ID : S_TEXT/UTF8
Codec ID/Info : UTF-8 Plain Text
Language : French
Default : Yes
Forced : No

Jeux Gratuit
15354131_1854970838071206_1069261547_o.png