Telecharger Foresti, Florence – Foresti Party [BLURAY 720p] French

(TRUEFRENCH = Vraie voix française)

BLURAY 720p | DTS | TRUEFRENCH

Foresti, Florence - Foresti Party

Foresti, Florence - Foresti Party

Foresti, Florence - Foresti Party

Origine du film : Français
Acteurs : Florence Foresti
Genre : Documentaire

Foresti, Florence - Foresti Party

Florence Foresti s’offre Bercy pour rendre hommage à une artiste qu’elle adore… elle même !

Nom de la release : Foresti.Party.Bercy.2012.FRENCH.720p.BluRay.DTS.x264-HDZ 16574″ style= »display:inline; »>

Qualité : BLURAY 720p
Format : MKV
Langue : Français
Découpé avec : Winrar
Nombre de fichiers : 9 Fichiers
Taille des fichiers : 999 Mo 450 Mo
Taille totale : 8442 Mo

[Liens Interchangeables]

1fichier.com
Télécharger

Uptobox.com
Télécharger

Free
Télécharger

Uploaded.net
Télécharger

Rapidgator.net
Télécharger

TurboBit.net
Télécharger

1 Lien Premium

Uptobox.com Premiumm
Télécharger

Free Premium
Télécharger

TurboBit.net Premium
Télécharger

1fichier.com Premium
Télécharger

Qualité BDRIP – 1400 Mo – Télécharger ici

NFO :

Afficher / Masquer le texte ead64884ba10a7e0fe1b810a3e420a42″ class= »text_spoiler » style= »display:none; »>Format : Matroska
Format version : Version 2
File size : 7.24 GiB
Duration : 2h 2mn
Overall bit rate : 8 448 Kbps
Movie name : Foresti Party Bercy 2012 720p Blu-ray x264 VFF DTS -HDZ
Encoded date : UTC 2012-11-26 18:07:58
Writing application : mkvmerge v5.8.0 ('No Sleep / Pillow') built on Sep 2 2012 14:52:40
Writing library : libebml v1.2.3 libmatroska v1.3.0

Video
ID : 1
Format : AVC
Format/Info : Advanced Video Codec
Format profile : [email protected]
Format settings, CABAC : Yes
Format settings, ReFrames : 9 frames
Muxing mode : Header stripping
Codec ID : V_MPEG4/ISO/AVC
Duration : 2h 2mn
Bit rate : 6 771 Kbps
Width : 1 280 pixels
Height : 720 pixels
Display aspect ratio : 16:9
Frame rate : 25.000 fps
Color space : YUV
Chroma subsampling : 4:2:0
Bit depth : 8 bits
Scan type : Progressive
Bits/(Pixel*Frame) : 0.294
Stream size : 5.80 GiB (80%)
Title : Foresti Party Bercy 2012 720p Blu-ray x264 VFF DTS -HDZ
Writing library : x264 core 128 r2M 198a7ea
Encoding settings : cabac=1 / ref=9 / deblock=1:-3:-3 / analyse=0x3:0x113 / me=umh / subme=10 / psy=1 / psy_rd=1.00:0.30 / mixed_ref=1 / me_range=64 / chroma_me=1 / trellis=2 / 8x8dct=1 / cqm=0 / deadzone=6,6 / fast_pskip=0 / chroma_qp_offset=-4 / threads=8 / lookahead_threads=1 / sliced_threads=0 / nr=0 / decimate=0 / interlaced=0 / bluray_compat=0 / constrained_intra=0 / bframes=6 / b_pyramid=2 / b_adapt=2 / b_bias=0 / direct=1 / weightb=1 / open_gop=1 / weightp=2 / keyint=250 / keyint_min=25 / scenecut=40 / intra_refresh=0 / rc_lookahead=250 / rc=crf / mbtree=1 / crf=18.8 / qcomp=0.75 / qpmin=0 / qpmax=69 / qpstep=4 / vbv_maxrate=50000 / vbv_bufsize=50000 / crf_max=0.0 / nal_hrd=none / ip_ratio=1.40 / aq=2:0.85
Language : French
Default : Yes
Forced : No

Audio
ID : 2
Format : DTS
Format/Info : Digital Theater Systems
Muxing mode : Header stripping
Codec ID : A_DTS
Duration : 2h 2mn
Bit rate mode : Constant
Bit rate : 1 510 Kbps
Channel(s) : 6 channels
Channel positions : Front: L C R, Side: L R, LFE
Sampling rate : 48.0 KHz
Bit depth : 16 bits
Compression mode : Lossy
Stream size : 1.29 GiB (18%)
Title : Frantais DTS 5.1
Language : French
Default : Yes
Forced : No

Text
ID : 3
Format : PGS
Muxing mode : zlib
Codec ID : S_HDMV/PGS
Codec ID/Info : The same subtitle format used on BDs/HD-DVDs
Title : ST FR sourd et malentendants
Language : French
Default : Yes
Forced : No

Menu
00:00:00.000 : en:00:00:00.000
00:00:41.107 : en:00:00:41.107
00:10:34.233 : en:00:10:34.233
00:19:24.796 : en:00:19:24.796
00:22:36.121 : en:00:22:36.121
00:28:34.179 : en:00:28:34.179
00:32:02.921 : en:00:32:02.921
00:32:46.164 : en:00:32:46.164
00:44:50.621 : en:00:44:50.621
00:57:07.724 : en:00:57:07.724
01:00:30.693 : en:01:00:30.693
01:06:55.211 : en:01:06:55.211
01:11:39.295 : en:01:11:39.295
01:12:32.181 : en:01:12:32.181
01:32:25.039 : en:01:32:25.039
01:50:36.863 : en:01:50:36.863
01:56:29.882 : en:01:56:29.882