Telecharger Frankenweenie [BLURAY 720p] French

BLURAY 720p | FRENCH | DTS

Frankenweenie

Frankenweenie

Frankenweenie

Origine du film : Américain
Réalisateur : Tim Burton
Acteurs : Charlie Tahan, Winona Ryder, Martin Landau
Genre : Animation, Comédie, Epouvante-horreur, Science fiction
Durée : 1h 27min
Date de sortie : 31 octobre 2012
Année de production : 2012
Distribué par : The Walt Disney Company France
Note presse : Frankenweenie 3,8/5
Note spectateurs : Frankenweenie 4,1/5 (1 647)
Bande annonce :

15e1a71865e8d8b4c6ebdb22432558ef

19361629″>Cliquez-ici pour voir la bande annonce 15e1a71865e8d8b4c6ebdb22432558ef »> 19361629

15e1a71865e8d8b4c6ebdb22432558ef

Frankenweenie

Après la mort soudaine de Sparky, son chien adoré, le jeune Victor fait appel au pouvoir de la science afin de ramener à la vie celui qui était aussi son meilleur ami. Il lui apporte au passage quelques modifications de son cru… Victor va tenter de cacher la créature qu’il a fabriquée mais lorsque Sparky s’échappe, ses copains de classe, ses professeurs et la ville tout entière vont apprendre que vouloir mettre la vie en laisse peut avoir quelques monstrueuses conséquences…

Nom de la release : Frankenweenie.2012.FRENCH.720p.BluRay.X264-BLOW.REMUX 17807″ style= »display:inline; »>

Qualité : BLURAY 720p
Format : MKV
Langue : Français
Sous-titre : Français
Découpé avec : Winrar
Nombre de fichiers : 3 Fichiers
Taille des fichiers : 999 Mo 710 Mo
Taille totale : 2708 Mo

[Liens Interchangeables]

1fichier.com
Télécharger

Uptobox.com
Télécharger

Free
Télécharger

Uploaded.net
Télécharger

Rapidgator.net
Upload en cour…

TurboBit.net
Télécharger

[ 1 lien Premium ]

1fichier.com
Télécharger

Uptobox.com
Télécharger

Free
Upload en cour…

Uploaded.net
Télécharger

TurboBit.net
Télécharger

NFO :

Afficher / Masquer le texte 8f539571afee484e4972c1ceda2cf29f » class= »text_spoiler » style= »display:none; »>General
Unique ID : 204771915816780034251540843810013752218 (0x9A0DA2EE004520058CD51F4BE322AB9A)
Complete name : /Frankenweenie.2012.FRENCH.720p.BluRay.X264-BLOW.REMUX.mkv
Format : Matroska
Format version : Version 2
File size : 2.65 GiB
Duration : 1h 26mn
Overall bit rate : 4 356 Kbps
Movie name : remux by ricky for tpi
Encoded date : UTC 2012-12-22 07:43:02
Writing application : mkvmerge v4.1.1 ('Bouncin' Back') built on Jul 3 2010 22:54:08
Writing library : libebml v1.0.0 libmatroska v1.0.0

Video
ID : 1
Format : AVC
Format/Info : Advanced Video Codec
Format profile : [email protected]
Format settings, CABAC : Yes
Format settings, ReFrames : 5 frames
Codec ID : V_MPEG4/ISO/AVC
Duration : 1h 26mn
Bit rate : 2 845 Kbps
Width : 1 280 pixels
Height : 688 pixels
Display aspect ratio : 1.85:1
Frame rate mode : Constant
Frame rate : 23.976 fps
Color space : YUV
Chroma subsampling : 4:2:0
Bit depth : 8 bits
Scan type : Progressive
Bits/(Pixel*Frame) : 0.135
Stream size : 1.68 GiB (63%)
Writing library : x264 core 129 r2230 1cffe9f
Encoding settings : cabac=1 / ref=5 / deblock=1:0:0 / analyse=0x3:0x133 / me=umh / subme=7 / psy=1 / psy_rd=1.00:0.00 / mixed_ref=1 / me_range=16 / chroma_me=1 / trellis=1 / 8x8dct=1 / cqm=0 / deadzone=21,11 / fast_pskip=0 / chroma_qp_offset=-2 / threads=12 / lookahead_threads=2 / sliced_threads=0 / nr=0 / decimate=1 / interlaced=0 / bluray_compat=0 / constrained_intra=0 / bframes=3 / b_pyramid=2 / b_adapt=1 / b_bias=0 / direct=1 / weightb=1 / open_gop=0 / weightp=2 / keyint=250 / keyint_min=23 / scenecut=40 / intra_refresh=0 / rc_lookahead=40 / rc=2pass / mbtree=1 / bitrate=2845 / ratetol=1.0 / qcomp=0.60 / qpmin=0 / qpmax=69 / qpstep=4 / cplxblur=20.0 / qblur=0.5 / ip_ratio=1.40 / aq=1:1.00
Language : English
Default : Yes
Forced : No

Audio
ID : 2
Format : DTS
Format/Info : Digital Theater Systems
Codec ID : A_DTS
Duration : 1h 26mn
Bit rate mode : Constant
Bit rate : 1 510 Kbps
Channel(s) : 6 channels
Channel positions : Front: L C R, Side: L R, LFE
Sampling rate : 48.0 KHz
Bit depth : 24 bits
Compression mode : Lossy
Stream size : 939 MiB (35%)
Language : French
Default : Yes
Forced : No

Jeux Gratuit
15354131_1854970838071206_1069261547_o.png