Telecharger Franz [DVDRiP] French

(TRUEFRENCH = Vraie voix française)

Qualité DVDRiP | TRUEFRENCH

Franz

Franz

Origine du film : Français, Belge
Réalisateur : Jacques Brel
Acteurs : Barbara, Jacques Brel, Danièle Evenou
Genre : Comédie dramatique
Durée : 1h31min
Année de production : 1971
Note spectateurs : Franz

; »>3,3/5 (19)

Franz

Dand le Nord, deux pensionnaires d’une maison de repos vivent une étrange passion amoureuse, qui suscite ricanements et jalousie : Léon, un homme timide et un peu simplet, ancien mercenaire, et Léonie, une femme mystérieuse à l’air arrogant.
94996″ style= »display:inline; »>

Franz

Format : XviD

Franz

Franz 1971 FRENCH.DVDRiP.XViD.AC3-HuSh

(1370 Mo)

Uptobox
Télécharger

Uploaded
Télécharger

TurboBit
Télécharger

Rapidgator
Télécharger

Uplea
Télécharger

1fichier
Télécharger

NFO :

Afficher / Masquer le texte 942e025ab7159428c96ed4435783b72b » class= »text_spoiler » style= »display:none; »>■General

Complete name : G:TorrentFranz.1971.FRENCH.DVDRiP.XViD.AC3-HuShFranz.1971.FRENCH.DVDRiP.XViD.AC3-HuSh.avi

Format : AVI

Format/Info : Audio Video Interleave

File size : 1.37 GiB

Duration : 1h 27mn

Overall bit rate : 2 244 Kbps

Writing application : VirtualDubMod 1.5.10.2 (build 2542/release)

Writing library : VirtualDubMod build 2542/release

Video

ID : 0

Format : MPEG-4 Visual

Format profile : Advanced [email protected]

Format settings, BVOP : 1

Format settings, QPel : No

Format settings, GMC : No warppoints

Format settings, Matrix : Default (H.263)

Muxing mode : Packed bitstream

Codec ID : XVID

Codec ID/Hint : XviD

Duration : 1h 27mn

Bit rate : 2 044 Kbps

Width : 640 pixels

Height : 384 pixels

Display aspect ratio : 5:3

Frame rate : 25.000 fps

Color space : YUV

Chroma subsampling : 4:2:0

Bit depth : 8 bits

Scan type : Progressive

Compression mode : Lossy

Bits/(Pixel*Frame) : 0.333

Stream size : 1.25 GiB (91%)

Writing library : XviD 64

Audio

ID : 1

Format : AC-3

Format/Info : Audio Coding 3

Mode extension : CM (complete main)

Format settings, Endianness : Big

Codec ID : 2000

Duration : 1h 27mn

Bit rate mode : Constant

Bit rate : 192 Kbps

Channel(s) : 2 channels

Channel positions : Front: L R

Sampling rate : 48.0 KHz

Compression mode : Lossy

Stream size : 120 MiB (9%)

Alignment : Split accross interleaves

Interleave, duration : 64 ms (1.60 video frames)

Interleave, preload duratio : 500 ms