Télécharger French Immersion French

Qualité DVDRiP | FRENCH | VFQ

French Immersion

French Immersion

French Immersion

Origine du film : Québecois
Réalisateur : Kevin Tierney
Acteurs : Robert Charlebois, Yves Jacques, Jacob Tierney
Genre : Comédie
Durée : 1h 40min
Année de production : 2010
Date de sortie : 7 octobre 2011
Note spectateurs : French Immersion 2,9/5 (5)

French Immersion

L’économie du petit village de Saint-Isidore-du-Coeur-de-Jésus, au Nord-du-Québec, mise presque entièrement sur l’école d’immersion française dirigée par Sylvie Tremblay. Pendant deux semaines, des anglophones de partout viennent apprendre les rudiments de la langue et du mode de vie des Québécois dans son établissement. L’un d’eux, Bobby Sexton, doit apprendre le français pour poser sa candidature comme chef du Parti Complètement Canadien. Jonathan, un chef juif en provenance de New York, et Cathy, une femme mystérieuse et secrète, sont aussi au nombre des étudiants, qui sont surveillés par Pierre-Émile Gélinas. Ce dernier doit s’assurer que tout le monde s’exprime en tout temps en français.

Nom de la release : French.Immersion.French.2012.DVDRiP.XviD-DeefDaBeef 31283″ style= »display:inline; »>

Qualité : DVDRiP
Format : XviD
Langue : Français
Taille totale : 745 Mo

1fichier
Télécharger

Uptobox
Télécharger

Free
Télécharger

Uploaded
Télécharger

Rapidgator
Télécharger

TurboBit
Télécharger

NFO :

Afficher / Masquer le texte ad8b4bf370ee7bc3d5b81536ffb69d9a » class= »text_spoiler » style= »display:none; »>Format : AVI
Format/Info : Audio Video Interleave
File size : 750 MiB
Duration : 1h 38mn
Overall bit rate : 1 066 Kbps
Movie name : FRENCH_IMMERSION.French.2012.DVDRip.XviD-DeefDaBeef
Writing application : Lavf52.78.4
Original source form/Name : FRENCH_IMMERSION

Video
ID : 0
Format : MPEG-4 Visual
Format profile : Advanced [email protected]
Format settings, BVOP : 2
Format settings, QPel : No
Format settings, GMC : No warppoints
Format settings, Matrix : Default (H.263)
Muxing mode : Packed bitstream
Codec ID : XVID
Codec ID/Hint : XviD
Duration : 1h 38mn
Bit rate : 924 Kbps
Width : 720 pixels
Height : 310 pixels
Display aspect ratio : 2.35:1
Frame rate : 29.970 fps
Color space : YUV
Chroma subsampling : 4:2:0
Bit depth : 8 bits
Scan type : Progressive
Compression mode : Lossy
Bits/(Pixel*Frame) : 0.138
Stream size : 650 MiB (87%)
Writing library : XviD 1.2.1 (UTC 2008-12-04)

Audio
ID : 1
Format : MPEG Audio
Format version : Version 1
Format profile : Layer 3
Mode : Joint stereo
Mode extension : MS Stereo
Codec ID : 55
Codec ID/Hint : MP3
Duration : 1h 38mn
Bit rate mode : Constant
Bit rate : 128 Kbps
Channel(s) : 2 channels
Sampling rate : 48.0 KHz
Compression mode : Lossy
Stream size : 90.0 MiB (12%)
Alignment : Aligned on interleaves
Interleave, duration : 24 ms (0.72 video frame)
Interleave, preload duration : 24 ms