Telecharger Get Shorty [BLURAY 720p] French

(TRUEFRENCH = Vraie voix française)

BLURAY 720p | MULTiLANGUES (Avec TRUEFRENCH)

Get Shorty

Get Shorty

Get Shorty

Origine du film : Américain
Réalisateur : Barry Sonnenfeld
Acteurs : Danny DeVito, John Travolta, Gene Hackman
Genre : Comédie, Policier
Durée : 1h45min
Date de sortie : 27 mars 1996
Année de production : 1995
Distribué par : United International Pictures (UIP)
Note spectateurs : Get Shorty

; »>2,5/5 (690)
Bande annonce :

7920bc14ac360739005ee977d2f15d8d

19433810″>Cliquez-ici pour voir la bande annonce 7920bc14ac360739005ee977d2f15d8d »> 19433810

7920bc14ac360739005ee977d2f15d8d

Get Shorty

Comment Chili Palmer, un brillant truand va, à l'aide de Harry, producteur et incurable loser, écrire un scenario relatant ses propres aventures et assurer son avenir radieux sous le soleil d'Hollywood.
49811″ style= »display:inline; »>

Qualité : BLURAY 720p
Format : MKV
Sous-titre : Français
Découpé avec : Winrar
Nombre de fichiers : 6 Fichiers
Taille des fichiers : 1000 Mo 459 Mo

[Liens Interchangeables]

Get.Shorty.Multi.720P.BluRay.x264.dts-centime ( 5459 Mo)

1fichier
Télécharger

Uptobox
Télécharger

Free
Télécharger

Uploaded
Télécharger

Rapidgator
Télécharger

TurboBit
Télécharger

[ 1 Lien Premium – 5,5 Go ]

1fichier
Télécharger

Uptobox
Télécharger

Free
Télécharger

TurboBit
Télécharger

NFO :

Afficher / Masquer le texte 9fa0ca65d7f7fe0fd9daa6a5fd9d4588″ class= »text_spoiler » style= »display:none; »>Name : GET.SHORTY.MULTI.720P.mkv
Format : Matroska
Format version : Version 2
File size : 5.33 GiB
Duration : 1h 44mn
Overall bit rate : 7 274 Kbps

Video
ID : 4
Format : AVC
Format/Info : Advanced Video Codec
Format profile : [email protected]
Format settings, CABAC : Yes
Format settings, ReFrames : 4 frames
Muxing mode : Header stripping
Codec ID : V_MPEG4/ISO/AVC
Duration : 1h 44mn
Bit rate : 5 000 Kbps
Width : 1 280 pixels
Height : 688 pixels
Display aspect ratio : 1.85:1
Frame rate mode : Constant
Frame rate : 23.976 fps
Color space : YUV
Chroma subsampling : 4:2:0
Bit depth : 8 bits
Scan type : Progressive
Bits/(Pixel*Frame) : 0.237
Stream size : 3.56 GiB (67%)
Writing library : x264 core 142 r2409 d6b4e63

Audio #1
ID : 2
Format : DTS
Format/Info : Digital Theater Systems
Mode : 16
Format settings, Endianness : Big
Muxing mode : Header stripping
Codec ID : A_DTS
Duration : 1h 44mn
Bit rate mode : Constant
Bit rate : 1 509 Kbps
Channel(s) : 6 channels
Channel positions : Front: L C R, Side: L R, LFE
Sampling rate : 48.0 KHz
Bit depth : 24 bits
Compression mode : Lossy
Stream size : 1.11 GiB (21%)
Language : English
Default : Yes
Forced : No

Audio #2
ID : 3
Format : DTS
Format/Info : Digital Theater Systems
Mode : 16
Format settings, Endianness : Big
Muxing mode : Header stripping
Codec ID : A_DTS
Duration : 1h 44mn
Bit rate mode : Constant
Bit rate : 768 Kbps
Channel(s) : 6 channels
Channel positions : Front: L C R, Side: L R, LFE
Sampling rate : 48.0 KHz
Bit depth : 24 bits
Compression mode : Lossy
Stream size : 576 MiB (11%)
Language : French
Default : No
Forced : No

Text
ID : 1
Format : UTF-8
Codec ID : S_TEXT/UTF8
Codec ID/Info : UTF-8 Plain Text
Default : Yes