Telecharger Ghosts of Mars [BLURAY 720p] French

BLURAY 720p | FRENCH | AC3

Ghosts of Mars

Ghosts of Mars

Ghosts of Mars

Origine du film : Américain
Réalisateur : John Carpenter
Acteurs : Natasha Henstridge, Ice Cube, Jason Statham
Genre : Epouvante-horreur, Science fiction
Durée : 1h 40min
Date de sortie : 21 novembre 2001
Année de production : 2001
Distribué par : CTV International
Note presse : Ghosts of Mars 3,4/5
Note spectateurs : Ghosts of Mars

; »>2/5 (2 956)
Bande annonce :

6060121c725203c63e63307224702faa

18667401″>Cliquez-ici pour voir la bande annonce 6060121c725203c63e63307224702faa »> 18667401

6060121c725203c63e63307224702faa

Ghosts of Mars

En 2176, la Terre a fait de Mars une colonie minière où 640 000 personnes tentent de vivre dans un environnement hostile.A Chryse, la capitale de la vallée sud, le lieutenant Melanie Ballard et son équipe reçoivent l'ordre de transférer James « Desolation » Williams, un criminel de la pire espèce, à la Cour de justice. Ils débarquent alors dans la ville abandonnée de Shining Canyon. Seuls Desolation et une poigné de détenus, enfermés dans leur cellule, semblent être les rescapés d'une terrible catastrophe. Des cadavres mutilés jonchent les couloirs de la prison. Au même moment, au fond du cratère de la mine à ciel ouvert, un étrange rituel se déroule. Des milliers de guerriers en transe s'adonnent à des rites barbares et sanglants. Le Bien va s'allier au Mal pour combattre le Pire.

Nom de la release : Ghosts Of Mars 2001 720p FRENCH BluRay x264-ForceBleue 31009″ style= »display:inline; »>

Qualité : BLURAY 720p
Format : MKV
Langue : Français
Découpé avec : Winrar
Nombre de fichiers : 5 Fichiers
Taille des fichiers : 1000 Mo 525 Mo
Taille totale : 4525 Mo

[Liens Interchangeables : 4 Liens de 1000 Mo 1 Lien de 525 Mo]

1fichier
Télécharger

Uptobox
Télécharger

Free
Télécharger

Uploaded
Télécharger

TurboBit
Télécharger

[1 Lien Premium de 4.42 GB]

1fichier
Télécharger

Uptobox
Télécharger

Uploaded
Télécharger

TurboBit
Télécharger

NFO :

Afficher / Masquer le texte 256e08c95e87a6f564d004bf98d3d06d » class= »text_spoiler » style= »display:none; »>Video
ID : 1
Format : AVC
Format/Info : Advanced Video Codec
Format profile : [email protected]
Format settings, CABAC : Yes
Format settings, ReFrames : 5 frames
Codec ID : V_MPEG4/ISO/AVC
Duration : 1h 38mn
Bit rate : 5 737 Kbps
Width : 1 280 pixels
Height : 536 pixels
Display aspect ratio : 2.35:1
Frame rate : 23.976 fps
Color space : YUV
Chroma subsampling : 4:2:0
Bit depth : 8 bits
Scan type : Progressive
Bits/(Pixel*Frame) : 0.349
Stream size : 3.85 GiB (88%)
Writing library : x264 core 67 r1119 6f0b2a9
Encoding settings : cabac=1 / ref=5 / deblock=1:0:0 / analyse=0x3:0x113 / me=umh / subme=7 / psy_rd=1.0:0.0 / mixed_ref=1 / me_range=16 / chroma_me=1 / trellis=1 / 8x8dct=1 / cqm=0 / deadzone=21,11 / chroma_qp_offset=-2 / threads=3 / nr=0 / decimate=1 / mbaff=0 / bframes=3 / b_pyramid=1 / b_adapt=1 / b_bias=0 / direct=3 / wpredb=1 / keyint=250 / keyint_min=25 / scenecut=40 / rc=2pass / bitrate=5737 / ratetol=1.0 / qcomp=0.60 / qpmin=10 / qpmax=51 / qpstep=4 / cplxblur=20.0 / qblur=0.5 / ip_ratio=1.40 / pb_ratio=1.30 / aq=1:1.00
Language : English

Audio
ID : 2
Format : AC-3
Format/Info : Audio Coding 3
Mode extension : CM (complete main)
Codec ID : A_AC3
Duration : 1h 38mn
Bit rate mode : Constant
Bit rate : 640 Kbps
Channel(s) : 6 channels
Channel positions : Front: L C R, Side: L R, LFE
Sampling rate : 48.0 KHz
Bit depth : 16 bits
Compression mode : Lossy
Stream size : 449 MiB (10%)
Title : 5.1
Language : French

Jeux Gratuit
15354131_1854970838071206_1069261547_o.png