Telecharger Gloria mundi[DVDRiP] [DVDRiP] French

(TRUEFRENCH = Vraie voix française)

Qualité DVDRiP | TRUEFRENCH

Gloria mundi

Gloria mundi

Origine du film : Français
Réalisateur : Nico Papatakis
Acteurs : Olga Karlatos, Armand Abplanalp, Philippe Adrien
Genre : Drame
Durée : 1h 32min
Date de sortie : 2 novembre 2005
Année de production : 2005
Distribué par : Shellac
Note presse : Gloria mundi 3,1/5
Note spectateurs : Gloria mundi 2,9/5 (3)
Bande annonce :

f507463a629183f48161c11b8ce9e91c

18402394″>Cliquez-ici pour voir la bande annonce f507463a629183f48161c11b8ce9e91c »> 18402394

f507463a629183f48161c11b8ce9e91c

Gloria mundi

Devant l’horreur du réel, quelle fiction serait à même de secouer l’apathie ?
Une comédienne joue le rôle d’une terroriste arabe que des parachutistes torturent dans un film qui reste inachevé. Pour mieux incarner son personnage, elle se torture elle-même.
Etroitement mêlées, la fiction et la réalité font de sa vie un calvaire : elle est séparée de son fils, de son amant ; un producteur l’humilie, des intellectuels de gauche se moquent de sa foi révolutionnaire…
Derrière la caméra, Hamdias son amant et réalisateur, assiste à sa souffrance à distance. 113695″ style= »display:inline; »>

Gloria mundi

Format : XviD

Gloria mundi

Olga Karlatos – Gloria Mundi DVDRIP

(822 Mo)

Uptobox
Télécharger

Uploaded
Télécharger

TurboBit
Télécharger

Rapidgator
Télécharger

Uplea
Télécharger

1fichier
Télécharger

NFO :

Afficher / Masquer le texte 334e3ee8f7298d5f8cc37fd1542f9864″ class= »text_spoiler » style= »display:none; »>General
Complete name : Gloria Mundi (1976).avi
Format : AVI
Format/Info : Audio Video Interleave
File size : 822 MiB
Duration : 1h 56mn
Overall bit rate : 989 Kbps
Writing application : MEncoder SVN-r33883(20110719-gcc4.5.2)
Writing library : MPlayer

Video
ID : 0
Format : MPEG-4 Visual
Format profile : Advanced [email protected]
Format settings, BVOP : 2
Format settings, QPel : No
Format settings, GMC : No warppoints
Format settings, Matrix : Default (H.263)
Codec ID : XVID
Codec ID/Hint : XviD
Duration : 1h 56mn
Bit rate : 849 Kbps
Width : 856 pixels
Height : 480 pixels
Display aspect ratio : 5:3
Original display aspect ratio : 16:9
Frame rate : 24.000 fps
Color space : YUV
Chroma subsampling : 4:2:0
Bit depth : 8 bits
Scan type : Progressive
Compression mode : Lossy
Bits/(Pixel*Frame) : 0.086
Stream size : 706 MiB (86%)
Writing library : XviD 1.2.1 (UTC 2008-12-04)

Audio
ID : 1
Format : MPEG Audio
Format version : Version 1
Format profile : Layer 3
Mode : Joint stereo
Mode extension : MS Stereo
Codec ID : 55
Codec ID/Hint : MP3
Duration : 1h 56mn
Bit rate mode : Constant
Bit rate : 128 Kbps
Channel(s) : 2 channels
Sampling rate : 44.1 KHz
Compression mode : Lossy
Delay relative to video : 97ms
Stream size : 106 MiB (13%)
Alignment : Aligned on interleaves
Interleave, duration : 26 ms (0.63 video frame)
Interleave, preload duration : 522 ms
Writing library : LAME3.98.4

Jeux Gratuit
15354131_1854970838071206_1069261547_o.png