Telecharger God Bless America [BLURAY 720p] French

(TRUEFRENCH = Vraie voix française)

BLURAY 720p | MULTiLANGUES (Avec TRUEFRENCH) | DTS

God Bless America

God Bless America

God Bless America

Origine du film : Américain
Réalisateur : Bob Goldthwait
Acteurs : Joel Murray, Tara Lynne Barr, Melinda Page Hamilton
Genre : Comédie
Durée : 1h 40min
Date de sortie : 10 octobre 2012
Date de sortie BluRay : 5 février 2013
Année de production : 2011
Distribué par : Potemkine Films
Note presse : God Bless America 3,1/5
Note spectateurs : God Bless America 4/5 (988)
Bande annonce :

b33562c5cda575256cbfc462d95ee428

19382993″>Cliquez-ici pour voir la bande annonce b33562c5cda575256cbfc462d95ee428″> 19382993

b33562c5cda575256cbfc462d95ee428

God Bless America

Seul, sans boulot, gravement malade, Frank sombre dans la spirale infernale d’une Amérique déshumanisée et cruelle. N’ayant plus rien à perdre, il prend son flingue et assassine les personnes les plus viles et stupides qui croisent son chemin. Bientôt rejoint par Roxy, lycéenne révoltée et complice des plus improbables, c’est le début d’une équipée sauvage, sanglante et grandguignolesque sur les routes de la bêtise made in USA.

Nom de la release : God.Bless.America.2011.MULTi.720p.BluRay.x264-STEAL 19818″ style= »display:inline; »>

God Bless America

Qualité : BLURAY 720p
Format : MKV
Langue : Anglais, Français
Sous-titre : Français
Découpé avec : Winrar
Nombre de fichiers : 6 Fichiers
Taille des fichiers : 1000 Mo 309 Mo
Taille totale : 5309 Mo

God Bless America

[Liens Interchangeables]

1fichier.com
Télécharger

Uptobox.com
Télécharger

Free
Télécharger

Uploaded
Télécharger

Rapidgator
Télécharger

TurboBit
Télécharger

[1 lien PREMIUM]

1fichier.com
Télécharger

Uptobox.com
Télécharger

Free
Télécharger

Uploaded
Télécharger

Rapidgator
Télécharger

TurboBit
Télécharger

NFO :

Afficher / Masquer le texte fcd77aef16e1a208d15a3750ba26cf20″ class= »text_spoiler » style= »display:none; »>General
Unique ID : 215995313080120560692950720638668701161 (0xA27F2F2332B51DBF84E215FBECCAFDE9)
Complete name : O:GOD BLESS AMERICA 2011 VFF Multi DTS 5.1 BluRay x264 720p-STEAL.mkv
Format : Matroska
File size : 5.18 GiB
Duration : 1h 40mn
Overall bit rate : 7 417 Kbps
Encoded date : UTC 2013-01-27 19:23:42
Writing application : mkvmerge v6.0.0 ('Coming Up For Air') built on Jan 20 2013 09:52:00
Writing library : libebml v1.3.0 libmatroska v1.4.0

Video
ID : 1
Format : AVC
Format/Info : Advanced Video Codec
Format profile : [email protected]
Format settings, CABAC : Yes
Format settings, ReFrames : 9 frames
Codec ID : V_MPEG4/ISO/AVC
Duration : 1h 40mn
Bit rate : 4 400 Kbps
Width : 1 280 pixels
Height : 720 pixels
Display aspect ratio : 16:9
Frame rate : 25.000 fps
Color space : YUV
Chroma subsampling : 4:2:0
Bit depth : 8 bits
Scan type : Progressive
Bits/(Pixel*Frame) : 0.191
Stream size : 2.97 GiB (57%)
Title : GOD BLESS AMERICA 2011 High [email protected] Resolution 1280p/ 720p Frame rate 25.000 Release °V°Eyes

Language : English
Color primaries : BT.709-5, BT.1361, IEC 61966-2-4, SMPTE RP177
Transfer characteristics : BT.709-5, BT.1361
Matrix coefficients : BT.709-5, BT.1361, IEC 61966-2-4 709, SMPTE RP177

Audio #1
ID : 2
Format : DTS
Format/Info : Digital Theater Systems
Codec ID : A_DTS
Duration : 1h 40mn
Bit rate mode : Constant
Bit rate : 1 510 Kbps
Channel(s) : 6 channels
Channel positions : Front: L C R, Side: L R, LFE
Sampling rate : 48.0 KHz
Bit depth : 16 bits
Compression mode : Lossy
Stream size : 1.06 GiB (20%)
Title : VFF DTS 5.1_1509 kbps 16-bit 48khz
Language : French

Audio #2
ID : 3
Format : DTS
Format/Info : Digital Theater Systems
Codec ID : A_DTS
Duration : 1h 40mn
Bit rate mode : Constant
Bit rate : 1 510 Kbps
Channel(s) : 6 channels
Channel positions : Front: L C R, Side: L R, LFE
Sampling rate : 48.0 KHz
Bit depth : 16 bits
Compression mode : Lossy
Stream size : 1.06 GiB (20%)
Title : V.O DTS 5.1_1509 kbps 16-bit 48khz
Language : English

Text #1
ID : 4
Format : UTF-8
Codec ID : S_TEXT/UTF8
Codec ID/Info : UTF-8 Plain Text
Title : Sous-titres Français forcés.SRT
Language : French

Text #2
ID : 5
Format : UTF-8
Codec ID : S_TEXT/UTF8
Codec ID/Info : UTF-8 Plain Text
Title : Sous-titres Français complets.SRT
Language : French

Menu
00:00:00.000 : fr: 01.
00:11:00.936 : fr: 02.
00:19:50.420 : fr: 03.
00:28:15.619 : fr: 04.
00:39:57.121 : fr: 05.
00:48:27.024 : fr: 06.
01:03:17.067 : fr: 07.
01:08:53.431 : fr: 08.
01:24:33.567 : fr: 09.
01:35:18.618 : fr: 10. Générique de fin…

BLESS AMERICA 2011 VFF Multi DTS 5.1 BluRay x264 720p-STEAL
[Information] [27/01/2013 01:11:50] Standard error stream

-[NoImage] avs [info]: 1280x720p 1:1 @ 25/1 fps (cfr)
-[NoImage] x264 [info]: using SAR=1/1
-[NoImage] x264 [info]: using cpu capabilities: MMX2 SSE2Fast SSSE3 FastShuffle SSE4.2 AVX
-[NoImage] x264 [info]: profile High, level 4.1
-[NoImage]
-[NoImage] x264 [info]: frame I:1069 Avg QP:12.04 size:122419
-[NoImage] x264 [info]: frame P:30814 Avg QP:15.44 size: 50183
-[NoImage] x264 [info]: frame B:118243 Avg QP:18.81 size: 13719
-[NoImage] x264 [info]: consecutive B-frames: 1.6% 2.4% 8.3% 22.7% 19.6% 8.8% 4.8% 26.4% 5.4%
-[NoImage] x264 [info]: mb I I16..4: 22.0% 47.2% 30.8%
-[NoImage] x264 [info]: mb P I16..4: 1.7% 9.8% 1.6% P16..4: 24.3% 26.7% 9.7% 0.0% 0.0% skip:26.1%
-[NoImage] x264 [info]: mb B I16..4: 0.3% 1.4% 0.1% B16..8: 26.8% 15.0% 2.3% direct: 5.6% skip:48.5% L0:45.7% L1:40.1% BI:14.2%
-[NoImage] x264 [info]: 8×8 transform intra:70.8% inter:60.6%
-[NoImage] x264 [info]: coded y,uvDC,uvAC intra: 73.5% 77.1% 55.3% inter: 21.1% 22.8% 6.5%
-[NoImage] x264 [info]: i16 v,h,dc,p: 25% 25% 15% 35%
-[NoImage] x264 [info]: i8 v,h,dc,ddl,ddr,vr,hd,vl,hu: 12% 9% 9% 9% 12% 13% 12% 12% 12%
-[NoImage] x264 [info]: i4 v,h,dc,ddl,ddr,vr,hd,vl,hu: 15% 21% 8% 6% 11% 11% 10% 8% 10%
-[NoImage] x264 [info]: i8c dc,h,v,p: 36% 29% 20% 16%
-[NoImage] x264 [info]: Weighted P-Frames: Y:2.6% UV:1.3%
-[NoImage] x264 [info]: ref P L0: 41.6% 9.1% 19.2% 7.8% 6.9% 4.7% 4.5% 2.7% 2.9% 0.4% 0.0%
-[NoImage] x264 [info]: ref B L0: 77.0% 10.3% 5.0% 2.6% 2.1% 1.6% 1.0% 0.4%
-[NoImage] x264 [info]: ref B L1: 94.0% 6.0%
-[NoImage] x264 [info]: kb/s:4395.54
-[NoImage] encoded 150126 frames, 4.69 fps, 4395.54 kb/s