Telecharger Gran Torino [BLURAY 720p] French

(TRUEFRENCH = Vraie voix française)

(AC3 = Dolby Digital 5.1)

BLURAY 720p | MULTiLANGUES (Avec TRUEFRENCH) | AC3

Gran Torino

Gran Torino

Gran Torino

Origine du film : Américain
Réalisateur : Clint Eastwood
Acteurs : Clint Eastwood, Bee Vang, Ahney Her
Genre : Drame, Thriller
Durée : 1h 51min
Date de sortie : 25 février 2009
Année de production : 2008
Distribué par : Warner Bros. France
Note presse : Gran Torino 4,7/5
Note spectateurs : Gran Torino

; »>4,5/5 (34 128)
Bande annonce :

e36a8eafb782c98c1d7f09add22eb67c

18857742″>Cliquez-ici pour voir la bande annonce e36a8eafb782c98c1d7f09add22eb67c »> 18857742

e36a8eafb782c98c1d7f09add22eb67c

Gran Torino

Walt Kowalski est un ancien de la guerre de Corée, un homme inflexible, amer et pétri de préjugés surannés. Après des années de travail à la chaîne, il vit replié sur lui-même, occupant ses journées à bricoler, traînasser et siroter des bières. Avant de mourir, sa femme exprima le voeu qu'il aille à confesse, mais Walt n'a rien à avouer, ni personne à qui parler. Hormis sa chienne Daisy, il ne fait confiance qu'à son M-1, toujours propre, toujours prêt à l'usage…Ses anciens voisins ont déménagé ou sont morts depuis longtemps. Son quartier est aujourd'hui peuplé d'immigrants asiatiques qu'il méprise, et Walt ressasse ses haines, innombrables – à l'encontre de ses voisins, des ados Hmong, latinos et afro-américains « qui croient faire la loi », de ses propres enfants, devenus pour lui des étrangers. Walt tue le temps comme il peut, en attendant le grand départ, jusqu'au jour où un ado Hmong du quartier tente de lui voler sa précieuse Ford Gran Torino… Walt tient comme à la prunelle de ses yeux à cette voiture fétiche, aussi belle que le jour où il la vit sortir de la chaîne.Lorsque le jeune et timide Thao tente de la lui voler sous la pression d'un gang, Walt fait face à la bande, et devient malgré lui le héros du quartier. Sue, la soeur aînée de Thao, insiste pour que ce dernier se rachète en travaillant pour Walt. Surmontant ses réticences, ce dernier confie au garçon des « travaux d'intérêt général » au profit du voisinage. C'est le début d'une amitié inattendue, qui changera le cours de leur vie.Grâce à Thao et sa gentille famille, Walt va découvrir le vrai visage de ses voisins et comprendre ce qui le lie à ces exilés, contraints de fuir la violence… comme lui, qui croyait fermer la porte sur ses souvenirs aussi aisément qu'il enfermait au garage sa précieuse Gran Torino…

Nom de la release : Gran.Torino.2008.MULTi.720p.BluRay.AC3.x264-ATeR 28445″ style= »display:inline; »>

Qualité : BLURAY 720p
Format : MKV
Langue : Anglais, Français
Sous-titre : Français
Découpé avec : Winrar
Nombre de fichiers : 7 Fichiers
Taille des fichiers : 1000 Mo 73 Mo
Taille totale : 6073 Mo

[7 Liens Interchangeables : 6 x 1000 Mo 1 x 73 Mo]

1fichier
Télécharger

Uptobox
Télécharger

Free
Télécharger

Uploaded
Télécharger

Rapidgator
Télécharger

TurboBit
Télécharger

[2 liens PREMIUM : 1 x 3 GB 1 x 2.93 GB]

Uploaded
Partie 1
Partie 2

[1 lien PREMIUM : 1 x 5.93 GB]

1fichier
Télécharger

Uptobox
Télécharger

TurboBit
Télécharger

NFO :

Afficher / Masquer le texte c64ac13a4b7dd164b563626a9e0d5db2″ class= »text_spoiler » style= »display:none; »>General
Complete name : Gran.Torino.2008.MULTi.720p.BluRay.AC3.x264-ATeR-www.Zone-Telechargement.com.mkv
Format : Matroska
Format version : Version 2
File size : 5.93 GiB
Duration : 1h 56mn
Overall bit rate : 7 278 Kbps
Encoded date : UTC 2012-08-09 09:34:49
Writing application : mkvmerge v5.7.0 ('The Whirlwind') built on Jul 8 2012 20:08:51
Writing library : libebml v1.2.3 libmatroska v1.3.0

Video
ID : 1
Format : AVC
Format/Info : Advanced Video Codec
Format profile : [email protected]
Format settings, CABAC : Yes
Format settings, ReFrames : 8 frames
Muxing mode : Header stripping
Codec ID : V_MPEG4/ISO/AVC
Duration : 1h 56mn
Bit rate : 6 000 Kbps
Width : 1 280 pixels
Height : 720 pixels
Display aspect ratio : 16:9
Frame rate mode : Constant
Frame rate : 23.976 fps
Color space : YUV
Chroma subsampling : 4:2:0
Bit depth : 8 bits
Scan type : Progressive
Bits/(Pixel*Frame) : 0.272
Stream size : 4.77 GiB (80%)
Writing library : x264 core 125 r2208
Encoding settings : cabac=1 / ref=8 / deblock=1:0:0 / analyse=0x3:0x133 / me=umh / subme=7 / psy=1 / psy_rd=1.00:0.10 / mixed_ref=0 / me_range=32 / chroma_me=1 / trellis=2 / 8x8dct=1 / cqm=0 / deadzone=21,11 / fast_pskip=0 / chroma_qp_offset=-3 / threads=3 / lookahead_threads=1 / sliced_threads=0 / nr=0 / decimate=0 / interlaced=0 / bluray_compat=0 / constrained_intra=0 / bframes=6 / b_pyramid=2 / b_adapt=2 / b_bias=0 / direct=3 / weightb=1 / open_gop=0 / weightp=1 / keyint=250 / keyint_min=25 / scenecut=40 / intra_refresh=0 / rc_lookahead=60 / rc=2pass / mbtree=1 / bitrate=6000 / ratetol=1.0 / qcomp=0.60 / qpmin=10 / qpmax=69 / qpstep=4 / cplxblur=20.0 / qblur=0.5 / vbv_maxrate=10000 / vbv_bufsize=10000 / nal_hrd=none / ip_ratio=1.40 / aq=1:0.00
Language : English
Default : Yes
Forced : No

Audio #1
ID : 2
Format : AC-3
Format/Info : Audio Coding 3
Mode extension : CM (complete main)
Format settings, Endianness : Big
Muxing mode : Header stripping
Codec ID : A_AC3
Duration : 1h 56mn
Bit rate mode : Constant
Bit rate : 640 Kbps
Channel(s) : 6 channels
Channel positions : Front: L C R, Side: L R, LFE
Sampling rate : 48.0 KHz
Bit depth : 16 bits
Compression mode : Lossy
Stream size : 534 MiB (9%)
Language : English
Default : Yes
Forced : No

Audio #2
ID : 3
Format : AC-3
Format/Info : Audio Coding 3
Mode extension : CM (complete main)
Format settings, Endianness : Big
Muxing mode : Header stripping
Codec ID : A_AC3
Duration : 1h 56mn
Bit rate mode : Constant
Bit rate : 640 Kbps
Channel(s) : 6 channels
Channel positions : Front: L C R, Side: L R, LFE
Sampling rate : 48.0 KHz
Bit depth : 16 bits
Compression mode : Lossy
Stream size : 534 MiB (9%)
Language : French
Default : No
Forced : No

Text #1
ID : 4
Format : VobSub
Muxing mode : zlib
Codec ID : S_VOBSUB
Codec ID/Info : The same subtitle format used on DVDs
Language : French
Default : Yes
Forced : No

Text #2
ID : 5
Format : VobSub
Muxing mode : zlib
Codec ID : S_VOBSUB
Codec ID/Info : The same subtitle format used on DVDs
Title : Forced
Language : French
Default : No
Forced : No

Jeux Gratuit
15354131_1854970838071206_1069261547_o.png