Telecharger Habemus Papam [BLURAY 720p] French

(TRUEFRENCH = Vraie voix française)

BLURAY 720p | TRUEFRENCH | DTS

Habemus Papam

Habemus Papam

Habemus Papam

Origine du film : Français, italien
Réalisateur : Nanni Moretti
Acteurs : Michel Piccoli, Nanni Moretti, Jerzy Stuhr
Genre : Comédie dramatique
Durée : 1h 42min
Date de sortie : 7 septembre 2011,
Année de production : 2011
Distribué par : Le Pacte
Note presse : Habemus Papam 4,0/5
Note spectateurs : Habemus Papam

; »>3,4/5 (2 072)
Bande annonce :

dfc836a1ef56498b4a860b710a9ecabf

19229536″>Cliquez-ici pour voir la bande annonce dfc836a1ef56498b4a860b710a9ecabf »> 19229536

dfc836a1ef56498b4a860b710a9ecabf

Habemus Papam

Après la mort du Pape, le Conclave se réunit afin d’élire son successeur. Plusieurs votes sont nécessaires avant que ne s’élève la fumée blanche. Enfin, un cardinal est élu ! Mais les fidèles massés sur la place Saint-Pierre attendent en vain l’apparition au balcon du nouveau souverain pontife. Ce dernier ne semble pas prêt à supporter le poids d’une telle responsabilité. Angoisse ? Dépression ? Peur de ne pas se sentir à la hauteur ? Le monde entier est bientôt en proie à l’inquiétude tandis qu’au Vatican, on cherche des solutions pour surmonter la crise…

Nom de la release : Habemus.Papam.2011.FRENCH.720p.BluRay.x264-LOST 34446″ style= »display:inline; »>

Qualité : BLURAY 720p
Format : MKV
Langue : Français
Sous-titre : Français
Découpé avec : Winrar
Nombre de fichiers : 5 Fichiers
Taille des fichiers : 999 Mo 480 Mo
Taille totale : 4476 Mo

[Liens Interchangeables]

1fichier
Télécharger

Uptobox
Télécharger

Free
Télécharger

Uploaded
Télécharger

Rapidgator
Télécharger

TurboBit
Télécharger

[ 1 lien Premium – 4,4 Go ]

1fichier Premium
Télécharger

Uptobox Premium
Télécharger

Free Premium
Télécharger

Bayfiles Premium
Télécharger

Uploaded Premium
Télécharger

Rapidgator Premium
Télécharger

TurboBit Premium
Télécharger

NFO :

Afficher / Masquer le texte ab9d86a6d5f5d1a3e895998f142a58d9″ class= »text_spoiler » style= »display:none; »>General
Complete name : Habemus.Papam.2011.FRENCH.720p.BluRay.x264-LOST.mkv
Format : Matroska
Format version : Version 2
File size : 4.36 GiB
Duration : 1h 45mn
Overall bit rate : 5 947 Kbps
Writing application : mkvmerge v4.1.1 ('Bouncin' Back') built on Jul 3 2010 22:54:08
Writing library : libebml v1.0.0 libmatroska v1.0

Video
ID : 1
Format : AVC
Format/Info : Advanced Video Codec
Format profile : [email protected]
Format settings, CABAC : Yes
Format settings, ReFrames : 5 frames
Codec ID : V_MPEG4/ISO/AVC
Duration : 1h 45mn
Bit rate : 4 437 Kbps
Width : 1 280 pixels
Height : 688 pixels
Display aspect ratio : 1.85:1
Frame rate : 23.976 fps
Color space : YUV
Chroma subsampling : 4:2:0
Bit depth : 8 bits
Scan type : Progressive
Bits/(Pixel*Frame) : 0.210
Stream size : 3.17 GiB (73%)
Writing library : x264 core 119 r2106 07efeb4
Encoding settings : cabac=1 / ref=5 / deblock=1:0:0 / analyse=0x3:0x113 / me=umh / subme=7 / psy=1 / psy_rd=1.00:0.15 / mixed_ref=1 / me_range=16 / chroma_me=1 / trellis=1 / 8x8dct=1 / cqm=0 / deadzone=21,11 / fast_pskip=0 / chroma_qp_offset=-3 / threads=12 / sliced_threads=0 / nr=0 / decimate=1 / interlaced=0 / bluray_compat=0 / constrained_intra=0 / bframes=3 / b_pyramid=2 / b_adapt=1 / b_bias=0 / direct=1 / weightb=1 / open_gop=0 / weightp=2 / keyint=250 / keyint_min=23 / scenecut=40 / intra_refresh=0 / rc_lookahead=40 / rc=2pass / mbtree=1 / bitrate=4437 / ratetol=1.0 / qcomp=0.60 / qpmin=0 / qpmax=69 / qpstep=4 / cplxblur=20.0 / qblur=0.5 / ip_ratio=1.40 / aq=1:1.00
Language : English
Default : Yes
Forced : No

Audio
ID : 2
Format : DTS
Format/Info : Digital Theater Systems
Codec ID : A_DTS
Duration : 1h 45mn
Bit rate mode : Constant
Bit rate : 1 510 Kbps
Channel(s) : 6 channels
Channel positions : Front: L C R, Side: L R, LFE
Sampling rate : 48.0 KHz
Bit depth : 24 bits
Compression mode : Lossy
Stream size : 1.11 GiB (25%)
Language : French
Default : Yes
Forced : No

Menu
00:00:00.000 : en:00:00:00.000
00:06:23.633 : en:00:06:23.633
00:15:12.120 : en:00:15:12.120
00:24:14.453 : en:00:24:14.453
00:33:33.637 : en:00:33:33.637
00:41:36.202 : en:00:41:36.202
00:50:12.885 : en:00:50:12.885
01:00:18.490 : en:01:00:18.490
01:09:01.387 : en:01:09:01.387
01:19:46.490 : en:01:19:46.490
01:29:10.554 : en:01:29:10.554
01:40:49.126 : en:01:40:49.126