Télécharger Halloween 3 : Le sang du sorcier

Qualité BLURAY 720p | FRENCH

Halloween 3 : Le sang du sorcier

Halloween 3 : Le sang du sorcier

Origine du film : Américain
Réalisateur : Tommy Lee Wallace
Acteurs : Stacey Nelkin, Ralph Strait, Tom Atkins
Genre : Epouvante-horreur
Durée : 1h36min
Année de production : 1982
Titre Original : Halloween III : Season of the Witch
Note spectateurs : Halloween 3 : Le sang du sorcier 1,5/5 (636)

Halloween 3 : Le sang du sorcier

Un fabricant de masques d’Halloween met au point un plan démoniaque pour tuer des millions d’enfants avec ses masques…
103322″ style= »display:inline; »>

Halloween 3 : Le sang du sorcier

Format : MKV
Découpé avec : Winrar

Halloween 3 : Le sang du sorcier

Halloween.3.1982.FRENCH.720p.BluRay.x264-St4f

(4474 Mo)

[Liens Interchangeables entre hébergeurs: 4x 1000 Mo + 1x 474 Mo]

Uptobox
Télécharger

Uplea
Télécharger

1fichier
Télécharger

Uploaded
Télécharger

Rapidgator
Télécharger

TurboBit
Télécharger

[ Liens Premium ]

Uptobox
Télécharger

Uplea
Télécharger

1fichier
Télécharger

Uploaded
Télécharger

TurboBit
Télécharger

NFO :

Afficher / Masquer le texte 9b3b4e6b0de832c30c0dc916d4d41cc5″ class= »text_spoiler » style= »display:none; »>Halloween.3.1982.FRENCH.720p.BluRay.x264-St4f.zone-telechargement.com.mkv
Format : Matroska
Format version : Version 4 / Version 2
File size : 4.37 GiB
Duration : 1h 38mn
Overall bit rate : 6 380 Kbps
Encoded date : UTC 2015-10-26 19:27:47
Writing application : mkvmerge v8.5.1 (‘Where you lead I will follow’) 64bit
Writing library : libebml v1.3.3 + libmatroska v1.4.4

Video
ID : 1
Format : AVC
Format/Info : Advanced Video Codec
Format profile : [email protected]
Format settings, CABAC : Yes
Format settings, ReFrames : 9 frames
Codec ID : V_MPEG4/ISO/AVC
Duration : 1h 38mn
Bit rate : 6 192 Kbps
Width : 1 280 pixels
Height : 544 pixels
Display aspect ratio : 2.35:1
Frame rate mode : Constant
Frame rate : 23.976 fps
Color space : YUV
Chroma subsampling : 4:2:0
Bit depth : 8 bits
Scan type : Progressive
Bits/(Pixel*Frame) : 0.371
Stream size : 4.15 GiB (95%)
Writing library : x264 core 146 r2538 121396c
Encoding settings : cabac=1 / ref=9 / deblock=1:-1:-1 / analyse=0x3:0x133 / me=umh / subme=10 / psy=1 / psy_rd=1.00:0.15 / mixed_ref=1 / me_range=32 / chroma_me=1 / trellis=2 / 8x8dct=1 / cqm=0 / deadzone=21,11 / fast_pskip=0 / chroma_qp_offset=-3 / threads=3 / lookahead_threads=1 / sliced_threads=0 / nr=0 / decimate=1 / interlaced=0 / bluray_compat=0 / constrained_intra=0 / bframes=8 / b_pyramid=2 / b_adapt=2 / b_bias=0 / direct=3 / weightb=1 / open_gop=0 / weightp=2 / keyint=240 / keyint_min=23 / scenecut=40 / intra_refresh=0 / rc_lookahead=60 / rc=2pass / mbtree=1 / bitrate=6192 / ratetol=1.0 / qcomp=0.60 / qpmin=0 / qpmax=69 / qpstep=4 / cplxblur=20.0 / qblur=0.5 / vbv_maxrate=50000 / vbv_bufsize=62500 / nal_hrd=none / filler=0 / ip_ratio=1.40 / aq=1:1.00
Language : English
Default : Yes
Forced : No

Audio
ID : 2
Format : AC-3
Format/Info : Audio Coding 3
Mode extension : CM (complete main)
Format settings, Endianness : Big
Codec ID : A_AC3
Duration : 1h 38mn
Bit rate mode : Constant
Bit rate : 192 Kbps
Channel(s) : 2 channels
Channel positions : Front: L R
Sampling rate : 48.0 KHz
Compression mode : Lossy
Stream size : 135 MiB (3%)
Title : French
Language : French
Default : Yes
Forced : No

Jeux Gratuit
15354131_1854970838071206_1069261547_o.png