Télécharger Hantise French

Qualité DVDRiP | FRENCH | AC3

Hantise

Hantise

Hantise

Origine du film : Américain
Réalisateur : Jan de Bont
Acteurs : Liam Neeson, Lili Taylor, Catherine Zeta-Jones
Genre : Epouvante-horreur, Fantastique, Thriller
Durée : 1h 53min
Date de sortie : 27 octobre 1999
Année de production : 1999
Titre Original : The Haunting
Distribué par : United International Pictures (UIP)
Note presse : Hantise 2,2/5
Note spectateurs : Hantise 1,8/5 (1 278)
Bande annonce :

0e50cd2c05c324974100bb9385769ff9

18650317″>Cliquez-ici pour voir la bande annonce 0e50cd2c05c324974100bb9385769ff9″> 18650317

0e50cd2c05c324974100bb9385769ff9

Hantise

Sous prétexte de les guérir de leurs insomnies, le docteur David Marrow a invité à "Hill House" trois de ses patients, Theo, jeune femme belle et élégante; Luke, cobaye professionnel qui est venu pour gagner un peu d'argent ; et Lili, fragile, sensible et vulnérable. En réalité, le docteur conduit une expérience sur les mécanismes de l'angoisse. Or, le château de "Hill House", lugubre résidence construite au XIXe siècle par le richissime industriel Hugh Crain, homme cruel et tourmenté, a la reputation d'être hanté.

Nom de la release : Hantise.French.DvdRip.Xvid.Ac3-XthanatosX 27485″ style= »display:inline; »>

Qualité : DVDRiP
Format : XviD
Langue : Français
Taille totale : 1400 Mo

1fichier
Télécharger

Uptobox
Télécharger

Free
Télécharger

Uploaded
Télécharger

Rapidgator
Télécharger

TurboBit
Télécharger

NFO :

Afficher / Masquer le texte 3ea37416ab3d5b295569e81bc701233b » class= »text_spoiler » style= »display:none; »>General
Complete name : Hantise.French.DvdRip.Xvid.Ac3-XthanatosX/Hantise.French.DvdRip.Xvid.Ac3-XthanatosX.avi
Format : AVI
Format/Info : Audio Video Interleave
File size : 1.37 GiB
Duration : 1h 48mn
Overall bit rate : 1 812 Kbps
Writing application : VirtualDubMod 1.5.4.1 (build 2178/release)
Writing library : VirtualDubMod build 2178/release

Video
ID : 0
Format : MPEG-4 Visual
Format profile : Advanced [email protected]
Format settings, BVOP : No
Format settings, QPel : No
Format settings, GMC : No warppoints
Format settings, Matrix : Custom
Codec ID : XVID
Codec ID/Hint : XviD
Duration : 1h 48mn
Bit rate : 1 357 Kbps
Width : 720 pixels
Height : 304 pixels
Display aspect ratio : 2.35:1
Frame rate : 25.000 fps
Color space : YUV
Chroma subsampling : 4:2:0
Bit depth : 8 bits
Scan type : Progressive
Compression mode : Lossy
Bits/(Pixel*Frame) : 0.248
Stream size : 1.02 GiB (75%)
Writing library : XviD 1.2.1 (UTC 2008-12-04)

Audio
ID : 1
Format : AC-3
Format/Info : Audio Coding 3
Mode extension : CM (complete main)
Format settings, Endianness : Big
Codec ID : 2000
Duration : 1h 48mn
Bit rate mode : Constant
Bit rate : 448 Kbps
Channel(s) : 6 channels
Channel positions : Front: L C R, Side: L R, LFE
Sampling rate : 48.0 KHz
Bit depth : 16 bits
Compression mode : Lossy
Delay relative to video : 8ms
Stream size : 346 MiB (25%)
Alignment : Split accross interleaves
Interleave, duration : 96 ms (2.40 video frames)
Interleave, preload duration : 96 ms

Jeux Gratuit
15354131_1854970838071206_1069261547_o.png