Telecharger Harcèlement [BLURAY 720p] French

BLURAY 720p | MULTiLANGUES

Harcèlement

Harcèlement

Harcèlement

Origine du film : Américain
Réalisateur : Barry Levinson
Acteurs : Michael Douglas, Demi Moore, Donald Sutherland
Genre : Thriller, Drame, Erotique
Durée : 2h7min
Date de sortie : 8 février 1995
Année de production : 1994
Titre Original : Disclosure
Distribué par : Warner Bros. France
Note spectateurs : Harcèlement

; »>2,1/5 (1 132)
Bande annonce :

963e89ca526b8b1abd211af6e4fe076a

19444088″>Cliquez-ici pour voir la bande annonce 963e89ca526b8b1abd211af6e4fe076a »> 19444088

963e89ca526b8b1abd211af6e4fe076a

Harcèlement

Cadre s'attendant à une promotion importante, Tom Sanders est surpris qu'on lui préfère Meredith Johnson, son ex-maîtresse à l'ambition certaine. Sanders repousse les avances trop cavalières de sa nouvelle patronne. Pour se venger, elle l'accuse de harcèlement sexuel.
60532″ style= »display:inline; »>

Harcèlement

Qualité : BLURAY 720p
Format : MKV
Langue : Multilangage
Sous-titre : Français
Découpé avec : Winrar
Nombre de fichiers : 9 Fichiers
Taille des fichiers : 1000 Mo + 656 Mo

Harcèlement

[Liens Interchangeables]

Harcelement.1995.MULTi.720p.BluRay.X264-DREAM ( 8656 Mo)

Uptobox
Télécharger

Uplea
Télécharger

1fichier
Télécharger

Uploaded
Télécharger

Rapidgator
Télécharger

TurboBit
Télécharger

[ 1 lien Premium – 8,6 Go ]

Uptobox
Télécharger

Uplea
Télécharger

1fichier
Télécharger

TurboBit
Télécharger

NFO :

Afficher / Masquer le texte 65e7da05902bf745c6a07e76c90cb8dc » class= »text_spoiler » style= »display:none; »>Harcelement.1995.MULTi.720p.BluRay.X264-DREAM.mkv
Format : Matroska
Format version : Version 4 / Version 2
File size : 8.45 GiB
Duration : 2h 8mn
Overall bit rate : 9 430 Kbps
Encoded date : UTC 2014-09-28 13:04:05
Writing application : mkvmerge v6.9.0 (‘On Duende’) 32bit built on Apr 18 2014 12:49:35
Writing library : libebml v1.3.0 + libmatroska v1.4.1

Video
ID : 1
Format : AVC
Format/Info : Advanced Video Codec
Format profile : [email protected]
Format settings, CABAC : Yes
Format settings, ReFrames : 9 frames
Codec ID : V_MPEG4/ISO/AVC
Duration : 2h 8mn
Bit rate : 7 200 Kbps
Width : 1 280 pixels
Height : 720 pixels
Display aspect ratio : 16:9
Frame rate mode : Constant
Frame rate : 23.976 fps
Color space : YUV
Chroma subsampling : 4:2:0
Bit depth : 8 bits
Scan type : Progressive
Bits/(Pixel*Frame) : 0.326
Stream size : 6.36 GiB (75%)
Writing library : x264 core 138 r2358 9e941d1
Encoding settings : cabac=1 / ref=9 / deblock=1:-3:-3 / analyse=0x3:0x113 / me=umh / subme=11 / psy=1 / psy_rd=0.96:0.04 / mixed_ref=1 / me_range=128 / chroma_me=1 / trellis=2 / 8x8dct=1 / cqm=0 / deadzone=6,6 / fast_pskip=0 / chroma_qp_offset=-2 / threads=12 / lookahead_threads=2 / sliced_threads=0 / nr=0 / decimate=1 / interlaced=0 / bluray_compat=0 / constrained_intra=0 / bframes=8 / b_pyramid=2 / b_adapt=2 / b_bias=0 / direct=1 / weightb=1 / open_gop=1 / weightp=2 / keyint=240 / keyint_min=23 / scenecut=40 / intra_refresh=0 / rc_lookahead=240 / rc=2pass / mbtree=1 / bitrate=7200 / ratetol=1.0 / qcomp=0.60 / qpmin=0 / qpmax=69 / qpstep=4 / cplxblur=20.0 / qblur=0.5 / vbv_maxrate=50000 / vbv_bufsize=50000 / nal_hrd=none / ip_ratio=1.40 / aq=2:1.00
Language : English
Default : Yes
Forced : Yes
Color primaries : BT.709
Transfer characteristics : BT.709
Matrix coefficients : BT.709

Audio #1
ID : 2
Format : AC-3
Format/Info : Audio Coding 3
Mode extension : CM (complete main)
Format settings, Endianness : Big
Codec ID : A_AC3
Duration : 2h 8mn
Bit rate mode : Constant
Bit rate : 640 Kbps
Channel(s) : 6 channels
Channel positions : Front: L C R, Side: L R, LFE
Sampling rate : 48.0 KHz
Bit depth : 16 bits
Compression mode : Lossy
Stream size : 588 MiB (7%)
Title : AC3 5.1 FR
Language : French
Default : Yes
Forced : Yes

Audio #2
ID : 3
Format : DTS
Format/Info : Digital Theater Systems
Mode : 16
Format settings, Endianness : Big
Codec ID : A_DTS
Duration : 2h 8mn
Bit rate mode : Constant
Bit rate : 1 509 Kbps
Channel(s) : 6 channels
Channel positions : Front: L C R, Side: L R, LFE
Sampling rate : 48.0 KHz
Bit depth : 24 bits
Compression mode : Lossy
Stream size : 1.35 GiB (16%)
Title : DTS 5.1 ENG
Language : English
Default : No
Forced : No

Text #1
ID : 4
Format : UTF-8
Codec ID : S_TEXT/UTF8
Codec ID/Info : UTF-8 Plain Text
Title : SRT Complet FR
Language : French
Default : No
Forced : No

Text #2
ID : 5
Format : PGS
Codec ID : S_HDMV/PGS
Codec ID/Info : The same subtitle format used on BDs/HD-DVDs
Title : PGS Complet FR
Language : French
Default : No
Forced : No

Text #3
ID : 6
Format : UTF-8
Codec ID : S_TEXT/UTF8
Codec ID/Info : UTF-8 Plain Text
Title : SRT Forced FR
Language : French
Default : Yes
Forced : Yes

Text #4
ID : 7
Format : PGS
Codec ID : S_HDMV/PGS
Codec ID/Info : The same subtitle format used on BDs/HD-DVDs
Title : PGS Forced FR
Language : French
Default : No
Forced : No

Text #5
ID : 8
Format : PGS
Codec ID : S_HDMV/PGS
Codec ID/Info : The same subtitle format used on BDs/HD-DVDs
Title : PGS Complet ENG
Language : English
Default : No
Forced : No

Menu
00:00:00.000 : en:00:00:00.000
00:05:05.430 : en:00:05:05.430
00:06:29.389 : en:00:06:29.389
00:08:57.537 : en:00:08:57.537
00:13:19.048 : en:00:13:19.048
00:15:38.646 : en:00:15:38.646
00:17:53.072 : en:00:17:53.072
00:21:07.349 : en:00:21:07.349
00:23:56.685 : en:00:23:56.685
00:27:40.701 : en:00:27:40.701
00:28:42.804 : en:00:28:42.804
00:30:55.812 : en:00:30:55.812
00:32:49.801 : en:00:32:49.801
00:34:43.081 : en:00:34:43.081
00:38:39.317 : en:00:38:39.317
00:39:44.215 : en:00:39:44.215
00:44:38.426 : en:00:44:38.426
00:46:57.398 : en:00:46:57.398
00:47:43.277 : en:00:47:43.277
00:49:44.857 : en:00:49:44.857
00:53:15.234 : en:00:53:15.234
00:54:39.026 : en:00:54:39.026
00:59:15.093 : en:00:59:15.093
01:03:25.093 : en:01:03:25.093
01:05:36.224 : en:01:05:36.224
01:11:02.091 : en:01:11:02.091
01:14:35.304 : en:01:14:35.304
01:17:54.587 : en:01:17:54.587
01:18:50.351 : en:01:18:50.351
01:21:56.620 : en:01:21:56.620
01:23:32.674 : en:01:23:32.674
01:27:00.257 : en:01:27:00.257
01:28:06.948 : en:01:28:06.948
01:35:19.923 : en:01:35:19.923
01:38:39.664 : en:01:38:39.664
01:41:05.643 : en:01:41:05.643
01:45:23.859 : en:01:45:23.859
01:50:20.155 : en:01:50:20.155
01:52:15.604 : en:01:52:15.604
01:55:05.315 : en:01:55:05.315
01:57:21.409 : en:01:57:21.409
01:59:41.674 : en:01:59:41.674
02:01:32.827 : en:02:01:32.827
02:04:50.566 : en:02:04:50.566

Jeux Gratuit
15354131_1854970838071206_1069261547_o.png