Telecharger Harry Potter à l'école des sorciers [BLURAY 720p] French

(TRUEFRENCH = Vraie voix française)

BLURAY 720p | MULTiLANGUES (Avec TRUEFRENCH)

Harry Potter à l'école des sorciers

Harry Potter à l'école des sorciers

Harry Potter à l'école des sorciers

Origine du film : Britannique, Américain
Réalisateur : Chris Columbus
Acteurs : Daniel Radcliffe, Rupert Grint, Emma Watson
Genre : Fantastique, Aventure, Famille
Durée : 2h22min
Date de sortie : 5 décembre 2001
Année de production : 2001
Titre Original : Harry Potter and the Philosopher's Stone
Distribué par : Warner Bros. France
Note presse : Harry Potter à l'école des sorciers 3,6/5
Note spectateurs : Harry Potter à l'école des sorciers 4/5 (39 840)
Bande annonce :

e52ab5a3a6a824e5e365aaa5ac43eeaf

18667684″>Cliquez-ici pour voir la bande annonce e52ab5a3a6a824e5e365aaa5ac43eeaf »> 18667684

e52ab5a3a6a824e5e365aaa5ac43eeaf

Harry Potter à l'école des sorciers

Harry Potter, un jeune orphelin, est élevé par son oncle Vernon et sa tante Pétunia qui le détestent. Alors qu'il était haut comme trois pommes, ces derniers lui ont raconté que ses parents étaient morts dans un accident de voiture.Le jour de son onzième anniversaire, Harry reçoit la visite inattendue d'un homme gigantesque se nommant Rubeus Hagrid. Celui-ci lui révèle qu'il est en fait le fils de deux puissants magiciens et qu'il possède lui aussi d'extraordinaires pouvoirs.C'est avec joie que le garçon accepte de suivre des cours à Poudlard, la célèbre école de sorcellerie. Il a enfin la chance de se faire des amis. Blâmé par le professeur Severus Rogue qui lui enseigne les potions et protégé par Albus Dumbledore, le directeur de l'établissement, Harry va tenter d'élucider le mystère de la pierre philosophale.
68349″ style= »display:inline; »>

Harry Potter à l'école des sorciers

Qualité : BLURAY 720p
Format : MKV
Sous-titre : Français
Découpé avec : Winrar
Nombre de fichiers : 8 Fichiers
Taille des fichiers : 1000 Mo + 167 Mo

Harry Potter à l'école des sorciers

[Liens Interchangeables]

Harry.Potter.And.The.Sorcerers.Stone.2001.MULTi.TRUEFRENCH.720p.BluRay.x264-RiV3R ( 7167 Mo)

Uptobox
Télécharger

Uplea
Télécharger

1fichier
Télécharger

Uploaded
Télécharger

Rapidgator
Télécharger

TurboBit
Télécharger

[ 1 lien Premium – 7,1 Go ]

Uptobox
Télécharger

Uplea
Télécharger

1fichier
Télécharger

TurboBit
Télécharger

[ 2 liens Premium – 4,9 Go + 2,2 Go ]

Uploaded
Partie 1
Partie 2

NFO :

Afficher / Masquer le texte d9757db2ee2dc2ced49a00ab95f241ff » class= »text_spoiler » style= »display:none; »>Source : BluRay Region B
Audio : VFF AC3 5.1 @ 448 Kbps + VO DTS 5.1 @ 1509 Kbps (from LPCM)
Subs : FR FORCES – FR COMPLETS – ENG FULL

General
Unique ID : 220134608177868932379367098646140958682 (0xA59C622471525BDE4B4237C3AC4E37DA)
Complete name : Harry.Potter.And.The.Sorcerers.Stone.2001.MULTi.TRUEFRENCH.720p.BluRay.x264-RiV3R.mkv
Format : Matroska
Format version : Version 4 / Version 2
File size : 7.00 GiB
Duration : 2h 32mn
Overall bit rate : 6 577 Kbps
Encoded date : UTC 2014-10-18 16:00:38
Writing application : mkvmerge v7.2.0 (‘On Every Street’) 64bit built on Sep 13 2014 14:19:59
Writing library : libebml v1.3.0 + libmatroska v1.4.1
DURATION : 02:32:21.643000000
NUMBER_OF_FRAMES : 857029
NUMBER_OF_BYTES : 1724342348
_STATISTICS_WRITING_APP : mkvmerge v7.2.0 (‘On Every Street’) 64bit built on Sep 13 2014 14:19:59
_STATISTICS_WRITING_DATE_UTC : 2014-10-18 16:00:38
_STATISTICS_TAGS : BPS DURATION NUMBER_OF_FRAMES NUMBER_OF_BYTES

Video
ID : 1
Format : AVC
Format/Info : Advanced Video Codec
Format profile : [email protected]
Format settings, CABAC : Yes
Format settings, ReFrames : 12 frames
Codec ID : V_MPEG4/ISO/AVC
Duration : 2h 32mn
Bit rate : 4 490 Kbps
Width : 1 280 pixels
Height : 532 pixels
Display aspect ratio : 2.40:1
Frame rate mode : Constant
Frame rate : 23.976 fps
Color space : YUV
Chroma subsampling : 4:2:0
Bit depth : 8 bits
Scan type : Progressive
Bits/(Pixel*Frame) : 0.275
Stream size : 4.78 GiB (68%)
Writing library : x264 core 142
Encoding settings : cabac=1 / ref=12 / deblock=1:-3:-3 / analyse=0x3:0x113 / me=umh / subme=11 / psy=1 / psy_rd=0.98:0.06 / mixed_ref=1 / me_range=64 / chroma_me=1 / trellis=2 / 8x8dct=1 / cqm=0 / deadzone=6,6 / fast_pskip=0 / chroma_qp_offset=-3 / threads=6 / lookahead_threads=1 / sliced_threads=0 / nr=0 / decimate=1 / interlaced=0 / bluray_compat=0 / constrained_intra=0 / bframes=7 / b_pyramid=2 / b_adapt=2 / b_bias=0 / direct=3 / weightb=1 / open_gop=0 / weightp=2 / keyint=240 / keyint_min=23 / scenecut=40 / intra_refresh=0 / rc_lookahead=240 / rc=crf / mbtree=1 / crf=18.5 / qcomp=0.75 / qpmin=0 / qpmax=69 / qpstep=4 / vbv_maxrate=50000 / vbv_bufsize=50000 / crf_max=0.0 / nal_hrd=none / filler=0 / ip_ratio=1.40 / aq=2:0.80
Language : English
Default : Yes
Forced : No
Color primaries : BT.709
Transfer characteristics : BT.709
Matrix coefficients : BT.709
DURATION : 02:32:21.550000000
NUMBER_OF_FRAMES : 219178
NUMBER_OF_BYTES : 5276651061
_STATISTICS_WRITING_APP : mkvmerge v7.2.0 (‘On Every Street’) 64bit built on Sep 13 2014 14:19:59
_STATISTICS_WRITING_DATE_UTC : 2014-10-18 16:00:38
_STATISTICS_TAGS : BPS DURATION NUMBER_OF_FRAMES NUMBER_OF_BYTES

Audio #1
ID : 2
Format : AC-3
Format/Info : Audio Coding 3
Mode extension : CM (complete main)
Format settings, Endianness : Big
Codec ID : A_AC3
Duration : 2h 32mn
Bit rate mode : Constant
Bit rate : 448 Kbps
Channel(s) : 6 channels
Channel positions : Front: L C R, Side: L R, LFE
Sampling rate : 48.0 KHz
Bit depth : 16 bits
Compression mode : Lossy
Stream size : 488 MiB (7%)
Title : VFF AC3 5.1 @ 448 Kbps
Language : French
Default : Yes
Forced : No

Audio #2
ID : 3
Format : DTS
Format/Info : Digital Theater Systems
Mode : 16
Format settings, Endianness : Big
Codec ID : A_DTS
Duration : 2h 32mn
Bit rate mode : Constant
Bit rate : 1 509 Kbps
Channel(s) : 6 channels
Channel positions : Front: L C R, Side: L R, LFE
Sampling rate : 48.0 KHz
Bit depth : 16 bits
Compression mode : Lossy
Stream size : 1.61 GiB (23%)
Title : VO DTS 5.1 @ 1509 Kbps
Language : English
Default : No
Forced : No

Text #1
ID : 4
Format : UTF-8
Codec ID : S_TEXT/UTF8
Codec ID/Info : UTF-8 Plain Text
Title : ST FR Forces
Language : French
Default : Yes
Forced : Yes

Text #2
ID : 5
Format : UTF-8
Codec ID : S_TEXT/UTF8
Codec ID/Info : UTF-8 Plain Text
Title : ST FR Complets
Language : French
Default : No
Forced : No

Text #3
ID : 6
Format : UTF-8
Codec ID : S_TEXT/UTF8
Codec ID/Info : UTF-8 Plain Text
Title : ST ENG Full
Language : English
Default : No
Forced : No

Menu
00:00:00.000 : en:Doorstep Delivery
00:04:05.411 : en:Vanishing Glass
00:08:11.157 : en:Letters From No One
00:12:17.403 : en:Keeper of the Keys
00:18:25.270 : en:Diagon Alley
00:21:43.635 : en:Gringotts
00:24:41.646 : en:Ollivanders
00:28:49.561 : en:The Boy Who Lived
00:31:05.196 : en:Platform 9 3/4
00:34:05.543 : en:Ron and Hermione
00:37:49.600 : en:Welcome to Hogwarts
00:41:29.487 : en:Sorting Hat
00:46:13.437 : en:Nick and Other Residents
00:50:29.026 : en:Potions and Parcels
00:55:04.301 : en:New Seeker
01:00:55.652 : en:Three-Headed Sentinel
01:03:43.986 : en:Facts and Feathers
01:07:48.230 : en:Mountain Troll
01:13:49.258 : en:Quidditch
01:20:17.979 : en:Interference Overcome
01:23:54.529 : en:Christmas Gift
01:28:32.473 : en:Cloaked in Darkness
01:31:42.497 : en:Mirror of Erised
01:36:42.630 : en:Norbert
01:42:34.815 : en:Forbidden Forest
01:49:05.038 : en:Up to Something
01:53:21.628 : en:Through the Trapdoor
01:58:09.749 : en:Wizards’ Chess
02:03:44.750 : en:Sacrifice Play
02:06:56.108 : en:Man with Two Faces
02:10:55.347 : en:Magic Touch
02:14:18.884 : en:Mark of Love
02:17:29.574 : en:House Cup Winner
02:21:44.662 : en:Not Really Going Home
02:24:10.808 : en:Credits
02:32:21.382 : en:02:32:21.382

Jeux Gratuit
15354131_1854970838071206_1069261547_o.png