Telecharger Haute sécurité [DVDRiP] French

(TRUEFRENCH = Vraie voix française)

BLURAY 1080p | MULTiLANGUES (Avec TRUEFRENCH)

Haute sécurité

Haute sécurité

Haute sécurité

Origine du film : Américain
Réalisateur : John Flynn
Acteurs : Sylvester Stallone, Donald Sutherland, John Amos
Genre : Action
Durée : 1h55min
Année de production : 1989
Titre Original : Lock Up
Note spectateurs : Haute sécurité

; »>2,8/5 (894)

Haute sécurité

Après avoir purgé une peine légère, Frank Leone est sur le point de quitter la prison. Mais Drumgoole, le gardien de l’établissement humilié dans le passé par Frank Leone, entend ne pas laisser sortir son prisonnier si facilement.
48112″ style= »display:inline; »>

Qualité : BLURAY 1080p
Format : MKV
Sous-titre : Français
Découpé avec : Winrar
Nombre de fichiers : 8 Fichiers
Taille des fichiers : 1000 Mo 980 Mo

[Liens Interchangeables]

Lock Up 1989 BluRay 1080p MULTi TRUEFRENCH x264-BREADLINE ( 7980 Mo)

1fichier
Télécharger

Uptobox
Télécharger

Free
Télécharger

Uploaded
Télécharger

Rapidgator
Télécharger

TurboBit
Télécharger

[ 1 Lien Premium – 7,9 Go ]

1fichier
Télécharger

Uptobox
Télécharger

Free
Télécharger

TurboBit
Télécharger

[ 2 Liens Premium ]

Uploaded
Partie 1
Partie 2

NFO :

Afficher / Masquer le texte 4b645847c37037737e08b657dc9b1041″ class= »text_spoiler » style= »display:none; »>General

Unique ID : 219132835368251551596474210351255094983 (0xA4DB72EDF4B816148F166662498F86C7)

Complete name : Lock.Up.1989.BluRay.1080p.MULTi.TRUEFRENCH.x264-BREADLiNE.mkv

Format : Matroska

Format version : Version 4 / Version 2

File size : 7.79 GiB

Duration : 1h 48mn

Overall bit rate : 10.3 Mbps

Movie name : Lock.Up.1989.BluRay.1080p.MULTi.TRUEFRENCH.x264-BREADLiNE

Source : Full BluRay Autocad3094

Encoded date : UTC 2014-03-02 20:26:58

Writing application : mkvmerge v6.7.0 ('Back to the Ground') 64bit built on Jan 8 2014 15:10:52

Writing library : libebml v1.3.0 libmatroska v1.4.1

Video

ID : 1

Format : AVC

Format/Info : Advanced Video Codec

Format profile : [email protected]

Format settings, CABAC : Yes

Format settings, ReFrames : 5 frames

Codec ID : V_MPEG4/ISO/AVC

Duration : 1h 48mn

Bit rate : 9 639 Kbps

Width : 1 920 pixels

Height : 1 036 pixels

Display aspect ratio : 1.85:1

Frame rate mode : Constant

Frame rate : 24.000 fps

Color space : YUV

Chroma subsampling : 4:2:0

Bit depth : 8 bits

Scan type : Progressive

Bits/(Pixel*Frame) : 0.202

Stream size : 7.15 GiB (92%)

Title : 1080p BluRay [x264] [Source Full BluRay Autocad3094]

Writing library : x264 core 130 r2273 b3065e6

Encoding settings : cabac=1 / ref=5 / deblock=1:0:0 / analyse=0x3:0x133 / me=umh / subme=7 / psy=1 / psy_rd=1.00:0.00 / mixed_ref=1 / me_range=16 / chroma_me=1 / trellis=0 / 8x8dct=1 / cqm=0 / deadzone=21,11 / fast_pskip=0 / chroma_qp_offset=-2 / threads=12 / lookahead_threads=3 / sliced_threads=0 / nr=0 / decimate=1 / interlaced=0 / bluray_compat=0 / constrained_intra=0 / bframes=6 / b_pyramid=2 / b_adapt=2 / b_bias=0 / direct=3 / weightb=1 / open_gop=0 / weightp=2 / keyint=240 / keyint_min=24 / scenecut=40 / intra_refresh=0 / rc_lookahead=50 / rc=2pass / mbtree=1 / bitrate=9639 / ratetol=1.0 / qcomp=0.60 / qpmin=0 / qpmax=69 / qpstep=4 / cplxblur=20.0 / qblur=0.5 / ip_ratio=1.40 / aq=1:1.00

Language : English

Default : Yes

Forced : No

Color primaries : BT.709

Transfer characteristics : BT.709

Matrix coefficients : BT.709

Audio #1

ID : 2

Format : AC-3

Format/Info : Audio Coding 3

Mode extension : CM (complete main)

Format settings, Endianness : Big

Codec ID : A_AC3

Duration : 1h 48mn

Bit rate mode : Constant

Bit rate : 192 Kbps

Channel count : 2 channels

Channel positions : Front: L R

Sampling rate : 48.0 KHz

Bit depth : 16 bits

Compression mode : Lossy

Stream size : 149 MiB (2%)

Title : TRUEFRENCH [AC3 2.0] [192Kbps]

Language : French

Default : Yes

Forced : No

Audio #2

ID : 3

Format : AC-3

Format/Info : Audio Coding 3

Mode extension : CM (complete main)

Format settings, Endianness : Big

Codec ID : A_AC3

Duration : 1h 48mn

Bit rate mode : Constant

Bit rate : 448 Kbps

Channel count : 6 channels

Channel positions : Front: L C R, Side: L R, LFE

Sampling rate : 48.0 KHz

Bit depth : 16 bits

Compression mode : Lossy

Stream size : 348 MiB (4%)

Title : English [AC3 5.1] [@448Kbps]

Language : English

Default : No

Forced : No

Text

ID : 4

Format : UTF-8

Codec ID : S_TEXT/UTF8

Codec ID/Info : UTF-8 Plain Text

Title : French [SRT] [Full Subtitles]

Language : French

Default : No

Forced : No