Telecharger Hirokin [BLURAY 720p] French

(TRUEFRENCH = Vraie voix française)

BLURAY 720p | MULTiLANGUES (Avec TRUEFRENCH) | DTS

Hirokin

Hirokin

Hirokin

Origine du film : Américain
Réalisateur : Alejo Mo-Sun
Acteurs : Wes Bentley, Jessica Szohr, Angus Macfadyen
Genre : Action
Durée : 1h 41min
Année de production : 2011
Note spectateurs : Hirokin 2,4/5 (30)
Bande annonce :

8c908b603129a89736e0101c1d8597ab

19453172″>Cliquez-ici pour voir la bande annonce 8c908b603129a89736e0101c1d8597ab »> 19453172

8c908b603129a89736e0101c1d8597ab

Hirokin

La planète Aradius est devenue un désert stérile. Ses habitants, les Arides, sont sous le joug du Griffon, un sanguinaire tyran humain. Hirokin, guerrier solitaire au passé sombre, est laissé pour mort au milieu de l’étendue désertique après avoir tenté de sauver sa femme et son fils des mains des sbires du Griffon. Secouru par une tribu Aride, il fait la connaissance de Moss, leader de la rébellion. En suivant les enseignements de ce dernier, Hirokin va choisir d’accomplir sa destinée en combattant pour la liberté des opprimés…

Nom de la release : Hirokin.2012.MULTI.720p.BluRay.x264-STEAL 23666″ style= »display:inline; »>

Qualité : BLURAY 720p
Format : MKV
Sous-titre : Français
Nombre de fichiers : 5 Fichiers
Taille des fichiers : 1000 Mo 468 Mo
Taille totale : 4468 Mo

Ps: Les liens sont interchangeables, prenez une partie de chaque hébergeur pour télécharger plusieurs fichiers en même temps. smile

1fichier.com
Upload en cour…

Uptobox.com
Télécharger

Free
Upload en cour…

Uploaded.net
Télécharger

Rapidgator.net
Télécharger

TurboBit.net
Télécharger

[1 Lien Premium]

1fichier.com Premium
Télécharger

Uptobox.com Premium
Télécharger

Free Premium
Télécharger

Uploaded.net Premium
Télécharger

Rapidgator.net Premium
Télécharger

TurboBit.net Premium
Télécharger

NFO :

Afficher / Masquer le texte 1a6fda29ad8a99903668e2669ff0b463″ class= »text_spoiler » style= »display:none; »>General
Unique ID : 162421653502388400783041822936657062290 (0x7A3145C9C00D400D8A6538144BC46992)

Hirokin VFF VO DTS 720p x264-STEAL.mkv

Format : Matroska
Format version : Version 2
File size : 4.36 GiB
Duration : 1h 41mn
Overall bit rate : 6 163 Kbps
Encoded date : UTC 2013-03-27 16:39:38
Writing application : mkvmerge v5.1.0 ('And so it goes') built on Feb 1 2012 11:32:58
Writing library : libebml v1.2.2 libmatroska v1.3.0

Video
ID : 1
Format : AVC
Format/Info : Advanced Video Codec
Format profile : [email protected]
Format settings, CABAC : Yes
Format settings, ReFrames : 9 frames
Codec ID : V_MPEG4/ISO/AVC
Duration : 1h 41mn
Bit rate : 3 023 Kbps
Width : 1 280 pixels
Height : 720 pixels
Display aspect ratio : 16:9
Frame rate mode : Constant
Frame rate : 25.000 fps
Color space : YUV
Chroma subsampling : 4:2:0
Bit depth : 8 bits
Scan type : Progressive
Bits/(Pixel*Frame) : 0.131
Stream size : 2.14 GiB (49%)
Title : Hirokin
Writing library : x264 core 130 r2 b3065e6
Encoding settings : cabac=1 / ref=9 / deblock=1:-3:-3 / analyse=0x3:0x113 / me=umh / subme=11 / psy=1 / psy_rd=0.96:0.05 / mixed_ref=1 / me_range=128 / chroma_me=1 / trellis=2 / 8x8dct=1 / cqm=0 / deadzone=6,6 / fast_pskip=0 / chroma_qp_offset=-3 / threads=6 / lookahead_threads=1 / sliced_threads=0 / nr=0 / decimate=0 / interlaced=0 / bluray_compat=0 / constrained_intra=0 / bframes=8 / b_pyramid=2 / b_adapt=2 / b_bias=0 / direct=3 / weightb=1 / open_gop=1 / weightp=2 / keyint=250 / keyint_min=25 / scenecut=40 / intra_refresh=0 / rc_lookahead=250 / rc=crf / mbtree=1 / crf=18.0 / qcomp=0.75 / qpmin=0 / qpmax=69 / qpstep=4 / vbv_maxrate=50000 / vbv_bufsize=50000 / crf_max=0.0 / nal_hrd=none / ip_ratio=1.40 / aq=2:0.75
Default : Yes
Forced : No
Color primaries : BT.709
Transfer characteristics : BT.709
Matrix coefficients : BT.709

Audio #1
ID : 2
Format : DTS
Format/Info : Digital Theater Systems
Mode : 16
Format settings, Endianness : Big
Codec ID : A_DTS
Duration : 1h 41mn
Bit rate mode : Constant
Bit rate : 1 509 Kbps
Channel(s) : 6 channels
Channel positions : Front: L C R, Side: L R, LFE
Sampling rate : 48.0 KHz
Bit depth : 16 bits
Compression mode : Lossy
Stream size : 1.07 GiB (24%)
Title : VFF DTS Audio French 1509 kbps 5.1 / 48 kHz / 1509 kbps / 16-bit
Language : French
Default : Yes
Forced : No

Audio #2
ID : 3
Format : DTS
Format/Info : Digital Theater Systems
Mode : 16
Format settings, Endianness : Big
Codec ID : A_DTS
Duration : 1h 41mn
Bit rate mode : Constant
Bit rate : 1 509 Kbps
Channel(s) : 6 channels
Channel positions : Front: L C R, Side: L R, LFE
Sampling rate : 48.0 KHz
Bit depth : 16 bits
Compression mode : Lossy
Stream size : 1.07 GiB (24%)
Title : VO DTS Audio English 1509 kbps 5.1 / 48 kHz / 1509 kbps / 16-bit
Language : English
Default : No
Forced : No

Text
ID : 4
Format : UTF-8
Codec ID : S_TEXT/UTF8
Codec ID/Info : UTF-8 Plain Text
Title : Complets
Language : French
Default : No
Forced : No

Jeux Gratuit
15354131_1854970838071206_1069261547_o.png