Telecharger Hit and run [BLURAY 720p] French

(TRUEFRENCH = Vraie voix française)

BLURAY 720p | MULTiLANGUES (Avec TRUEFRENCH) | DTS

Hit and run

Hit and run

Hit and run

Origine du film : Américain
Réalisateur : Dax Shepard, David Palmer (XVI)
Acteurs : Dax Shepard, Kristen Bell, Bradley Cooper
Genre : Action, Comédie, Romance
Durée : 1h 34min
Date de sortie : 29 août 2012
Année de production : 2012
Titre Original : Hit and Run
Distribué par : Metropolitan FilmExport
Note presse : Hit and run 1,8/5
Note spectateurs : Hit and run

; »>2,5/5 (618)
Bande annonce :

9d3c0ba232e44579d467039cb2ed3022

19343214″>Cliquez-ici pour voir la bande annonce 9d3c0ba232e44579d467039cb2ed3022″> 19343214

9d3c0ba232e44579d467039cb2ed3022

Hit and run

En apparence, Charlie Bronson mène une existence paisible avec sa petite amie Annie dans une petite ville tranquille. Mais Charlie est l’ex-chauffeur d’un gang de braqueurs qui ont plongé à la suite de son témoignage. Il vit aujourd’hui sous une autre identité grâce au programme de protection des témoins. Lorsqu’Annie doit se rendre à Los Angeles pour décrocher le job de ses rêves, Charlie décide de l’y conduire malgré les risques qu’il encourt. Rapidement, le couple va se retrouver pourchassé par Alex, l’ancien boss de Charlie, un malfrat aussi dérangé que violent qui s’est promis de se venger.Poursuivi par les fédéraux, la police, l’ex de sa petite amie et ses anciens complices, Charlie va devoir mettre le pied au plancher s’il veut s’en sortir vivant et se battre pour garder Annie qui ignorait tout de son passé.

Nom de la release : Hit.And.Run.2012.MULTi.WiTH.TRUEFRENCH.720p.BluRay.DTS.x264-STEAL 27625″ style= »display:inline; »>

Qualité : BLURAY 720p
Format : MKV
Langue : Anglais, Français
Sous-titre : Français
Découpé avec : Winrar
Nombre de fichiers : 6 Fichiers
Taille des fichiers : 1000 Mo 530 Mo
Taille totale : 5530 Mo

[6 Liens Interchangeables : 5 x 1000 Mo 1 x 530 Mo]

1fichier
Télécharger

Uptobox
Télécharger

Uploaded
Télécharger

Rapidgator
Télécharger

TurboBit
Télécharger

[1 lien PREMIUM : 1 x 5.40 GB]

1fichier
Télécharger

Uptobox
Télécharger

TurboBit
Télécharger

NFO :

Afficher / Masquer le texte 5c6400b2beaa09f66a519a6f5b7de681″ class= »text_spoiler » style= »display:none; »>General

Format : Matroska
Format version : Version 4 / Version 2
File size : 5.40 GiB
Duration : 1h 40mn
Overall bit rate : 7 720 Kbps
Encoded date : UTC 2013-02-11 00:50:54
Writing application : mkvmerge v6.0.0 ('Coming Up For Air') built on Jan 20 2013 09:52:00
Writing library : libebml v1.3.0 libmatroska v1.4.0

Video
ID : 1
Format : AVC
Format/Info : Advanced Video Codec
Format profile : [email protected]
Format settings, CABAC : Yes
Format settings, ReFrames : 9 frames
Codec ID : V_MPEG4/ISO/AVC
Duration : 1h 40mn
Bit rate : 4 700 Kbps
Width : 1 280 pixels
Height : 720 pixels
Display aspect ratio : 16:9
Frame rate mode : Constant
Frame rate : 23.976 fps
Color space : YUV
Chroma subsampling : 4:2:0
Bit depth : 8 bits
Scan type : Progressive
Bits/(Pixel*Frame) : 0.213
Stream size : 3.18 GiB (59%)
Title : HIT AND RUN 2012 High [email protected] Resolution 1280p/ 720p Frame rate 23.976 fps Release ?V?Eyes
Writing library : x264 core 129 r2245 bc13772
Encoding settings : cabac=1 / ref=9 / deblock=1:-3:-3 / analyse=0x3:0x113 / me=umh / subme=11 / psy=1 / psy_rd=0.96:0.02 / mixed_ref=1 / me_range=128 / chroma_me=1 / trellis=2 / 8x8dct=1 / cqm=0 / deadzone=21,11 / fast_pskip=0 / chroma_qp_offset=-2 / threads=12 / lookahead_threads=2 / sliced_threads=0 / nr=0 / decimate=1 / interlaced=0 / bluray_compat=0 / constrained_intra=0 / bframes=8 / b_pyramid=2 / b_adapt=2 / b_bias=0 / direct=1 / weightb=1 / open_gop=1 / weightp=2 / keyint=240 / keyint_min=23 / scenecut=40 / intra_refresh=0 / rc_lookahead=240 / rc=2pass / mbtree=1 / bitrate=4700 / ratetol=1.0 / qcomp=0.60 / qpmin=10 / qpmax=51 / qpstep=4 / cplxblur=20.0 / qblur=0.5 / vbv_maxrate=50000 / vbv_bufsize=50000 / nal_hrd=none / ip_ratio=1.40 / aq=2:1.00
Language : English
Default : Yes
Forced : No
Color primaries : BT.709
Transfer characteristics : BT.709
Matrix coefficients : BT.709

Audio #1
ID : 2
Format : DTS
Format/Info : Digital Theater Systems
Mode : 16
Format settings, Endianness : Big
Codec ID : A_DTS
Duration : 1h 40mn
Bit rate mode : Constant
Bit rate : 1 509 Kbps
Channel(s) : 6 channels
Channel positions : Front: L C R, Side: L R, LFE
Sampling rate : 48.0 KHz
Bit depth : 16 bits
Compression mode : Lossy
Stream size : 1.06 GiB (20%)
Title : VFF DTS 5.1_1509 kbps 16-bit 48khz
Language : French
Default : Yes
Forced : No

Audio #2
ID : 3
Format : DTS
Format/Info : Digital Theater Systems
Mode : 16
Format settings, Endianness : Big
Codec ID : A_DTS
Duration : 1h 40mn
Bit rate mode : Constant
Bit rate : 1 509 Kbps
Channel(s) : 6 channels
Channel positions : Front: L C R, Side: L R, LFE
Sampling rate : 48.0 KHz
Bit depth : 16 bits
Compression mode : Lossy
Stream size : 1.06 GiB (20%)
Title : V.O DTS 5.1_1509 kbps 16-bit 48khz
Language : English
Default : No
Forced : No

Text #1
ID : 4
Format : UTF-8
Codec ID : S_TEXT/UTF8
Codec ID/Info : UTF-8 Plain Text
Title : Sous-titres Fran?ais forc?s.SRT
Language : French
Default : Yes
Forced : No

Text #2
ID : 5
Format : UTF-8
Codec ID : S_TEXT/UTF8
Codec ID/Info : UTF-8 Plain Text
Title : Sous-titres Fran?ais complets.SRT
Language : French
Default : No
Forced : No

Text #3
ID : 6
Format : UTF-8
Codec ID : S_TEXT/UTF8
Codec ID/Info : UTF-8 Plain Text
Title : Full Subtitles English.SRT
Language : English
Default : No
Forced : No

Menu
00:00:00.000 : fr: 01. Annie et charles
00:06:13.248 : fr: 02. Une promotion
00:14:02.967 : fr: 03. Los Angeles
00:19:08.439 : fr: 04. temoin prot?g?
00:25:58.932 : fr: 05. Yul Perrkins
00:32:20.021 : fr: 06. Course poursuite
00:36:29.604 : fr: 07. Protection canine
00:41:07.590 : fr: 08. Escale au motel
00:49:28.757 : fr: 09. Rencontres
00:55:14.520 : fr: 10. R?v?lations
01:02:29.746 : fr: 11. L'A?rodrome
01:10:02.949 : fr: 12. En otage
01:17:01.784 : fr: 13. Foyer paternel
01:21:41.313 : fr: 14. R?glement de comptes
01:28:57.791 : fr: 15. Entretien
01:33:14.255 : fr: 16. G?n?rique de fin…

Jeux Gratuit
15354131_1854970838071206_1069261547_o.png