Telecharger Hitchcock [BLURAY 720p] French

(TRUEFRENCH = Vraie voix française)

BLURAY 720p | MULTiLANGUES (Avec TRUEFRENCH) | DTS

Hitchcock

Hitchcock

Hitchcock

Origine du film : Américain
Réalisateur : Sacha Gervasi
Acteurs : Anthony Hopkins, Helen Mirren, Scarlett Johansson
Genre : Biopic
Durée : 1h 38min
Date de sortie : 6 février 2013
Année de production : 2012
Distribué par : Twentieth Century Fox France
Note presse : Hitchcock 2,6/5
Note spectateurs : Hitchcock 3,5/5 (1 692)
Bande annonce :

bc8475346b0d6b4c0df2c88c88eea24a

19444753″>Cliquez-ici pour voir la bande annonce bc8475346b0d6b4c0df2c88c88eea24a »> 19444753

bc8475346b0d6b4c0df2c88c88eea24a

Hitchcock

Alfred Hitchcock, réalisateur reconnu et admiré, surnommé « le maître du suspense », est arrivé au sommet de sa carrière. A la recherche d’un nouveau projet risqué et différent, il s’intéresse à l’histoire d’un tueur en série. Mais tous, producteurs, censure, amis, tentent de le décourager. Habituée aux obsessions de son mari et à son goût immodéré pour les actrices blondes, Alma, sa fidèle collaboratrice et épouse, accepte de le soutenir au risque de tout perdre. Ensemble, ils mettent tout en œuvre pour achever le film le plus célèbre et le plus controversé du réalisateur : PSYCHOSE.

Nom de la release : Hitchcock.2012.MULTi.WiTH.TRUEFRENCH.720p.BluRay.x264.DTS-STEAL 24048″ style= »display:inline; »>

Qualité : BLURAY 720p
Format : MKV
Nombre de fichiers : 5 Fichiers
Taille des fichiers : 1000 Mo 423 Mo
Taille totale : 4423 Mo

Ps: Les liens sont interchangeables, prenez une partie de chaque hébergeur pour télécharger plusieurs fichiers en même temps. smile

1fichier.com
Télécharger

Uptobox.com
Télécharger

Free
Télécharger

Uploaded.net
Télécharger

Rapidgator.net
Télécharger

TurboBit.net
Télécharger

[1 Lien Premium]

1fichier.com
Télécharger

Uptobox.com
Télécharger

Free
Télécharger

Uploaded.net
Télécharger

Rapidgator.net
Télécharger

TurboBit.net
Télécharger

NFO :

Afficher / Masquer le texte 219ece8d14d93c3587eda532f75fd522″ class= »text_spoiler » style= »display:none; »>General
Unique ID : 217182769253927450209233012350813222274 (0xA363E13F3BA292D580EA78FE23643582)
Complete name : Hitchcock 2012 720p DTS Bluray x264-STEAL.mkv
Format : Matroska
File size : 4.32 GiB
Duration : 1h 38mn
Overall bit rate : 6 289 Kbps
Movie name : Hitchcock 2012 High [email protected] Resolution 1280p/ 720p Frame rate 23.976 fps Release Blondin000
Encoded date : UTC 2013-04-03 12:43:56
Writing application : mkvmerge v6.0.0 ('Coming Up For Air') built on Jan 20 2013 09:52:00
Writing library : libebml v1.3.0 libmatroska v1.4.0

Video
ID : 1
Format : AVC
Format/Info : Advanced Video Codec
Format profile : [email protected]
Format settings, CABAC : Yes
Format settings, ReFrames : 9 frames
Codec ID : V_MPEG4/ISO/AVC
Duration : 1h 38mn
Bit rate : 4 000 Kbps
Width : 1 280 pixels
Height : 720 pixels
Display aspect ratio : 16:9
Frame rate : 23.976 fps
Color space : YUV
Chroma subsampling : 4:2:0
Bit depth : 8 bits
Scan type : Progressive
Bits/(Pixel*Frame) : 0.181
Stream size : 2.68 GiB (62%)
Title : Hitchcock 2012 High [email protected] Resolution 1280p/ 720p Frame rate 23.976 fps Release Blondin000
Writing library : x264 core 129 r2245 bc13772
Encoding settings : cabac=1 / ref=9 / deblock=1:-3:-3 / analyse=0x3:0x113 / me=umh / subme=11 / psy=1 / psy_rd=0.96:0.25 / mixed_ref=1 / me_range=128 / chroma_me=1 / trellis=2 / 8x8dct=1 / cqm=0 / deadzone=21,11 / fast_pskip=0 / chroma_qp_offset=-3 / threads=12 / lookahead_threads=2 / sliced_threads=0 / nr=0 / decimate=1 / interlaced=0 / bluray_compat=0 / constrained_intra=0 / bframes=5 / b_pyramid=2 / b_adapt=2 / b_bias=0 / direct=1 / weightb=1 / open_gop=1 / weightp=2 / keyint=240 / keyint_min=23 / scenecut=40 / intra_refresh=0 / rc_lookahead=240 / rc=2pass / mbtree=1 / bitrate=4000 / ratetol=1.0 / qcomp=0.60 / qpmin=0 / qpmax=69 / qpstep=4 / cplxblur=20.0 / qblur=0.5 / vbv_maxrate=50000 / vbv_bufsize=50000 / nal_hrd=none / ip_ratio=1.40 / aq=2:1.00
Language : English
Color primaries : BT.709-5, BT.1361, IEC 61966-2-4, SMPTE RP177
Transfer characteristics : BT.709-5, BT.1361
Matrix coefficients : BT.709-5, BT.1361, IEC 61966-2-4 709, SMPTE RP177

Audio #1
ID : 2
Format : DTS
Format/Info : Digital Theater Systems
Codec ID : A_DTS
Duration : 1h 38mn
Bit rate mode : Constant
Bit rate : 755 Kbps
Channel(s) : 6 channels
Channel positions : Front: L C R, Side: L R, LFE
Sampling rate : 48.0 KHz
Bit depth : 24 bits
Compression mode : Lossy
Stream size : 531 MiB (12%)
Title : VFF DTS 5.1_768 kbps/ 24-bit 48khz
Language : French

Audio #2
ID : 3
Format : DTS
Format/Info : Digital Theater Systems
Codec ID : A_DTS
Duration : 1h 38mn
Bit rate mode : Constant
Bit rate : 1 510 Kbps
Channel(s) : 6 channels
Channel positions : Front: L C R, Side: L R, LFE
Sampling rate : 48.0 KHz
Bit depth : 24 bits
Compression mode : Lossy
Stream size : 1.04 GiB (24%)
Title : VO DTS 5.1_1510 kbps/ 24-bit 48khz
Language : English

Text #1
ID : 4
Format : PGS
Muxing mode : zlib
Codec ID : S_HDMV/PGS
Codec ID/Info : The same subtitle format used on BDs/HD-DVDs
Title : FR Complets Original Bluray
Language : French

Text #2
ID : 5
Format : PGS
Muxing mode : zlib
Codec ID : S_HDMV/PGS
Codec ID/Info : The same subtitle format used on BDs/HD-DVDs
Title : FR ForcΘs Original bluray
Language : French

Text #3
ID : 6
Format : UTF-8
Codec ID : S_TEXT/UTF8
Codec ID/Info : UTF-8 Plain Text
Title : FR Complets srt
Language : French

Text #4
ID : 7
Format : UTF-8
Codec ID : S_TEXT/UTF8
Codec ID/Info : UTF-8 Plain Text
Title : FR ForcΘs srt
Language : French