Télécharger Hooligans French

(TRUEFRENCH = Vraie voix française)

(AC3 = Dolby Digital 5.1)

Qualité DVDRiP | TRUEFRENCH | AC3

Hooligans

Hooligans

Hooligans

Origine du film : Américain, britannique
Réalisateur : Lexi Alexander
Acteurs : Elijah Wood, Charlie Hunnam, Claire Forlani
Genre : Drame
Durée : 1h 50min
Date de sortie : 31 mai 2006
Année de production : 2005
Distribué par : Metropolitan FilmExport
Note presse : Hooligans 2,6/5
Note spectateurs : Hooligans 3,6/5 (6948)
Bande annonce :

19befd9f9a30013f651838a19af32061

18602808″>Cliquez-ici pour voir la bande annonce 19befd9f9a30013f651838a19af32061″> 18602808

19befd9f9a30013f651838a19af32061

Hooligans

Renvoyé de la prestigieuse université de Harvard pour un délit qu'il n'a pas commis, Matt Buckner part se faire oublier chez sa soeur en Angleterre. Là-bas, il découvre la fièvre qu'engendre le football, et surtout les groupes de supporters qui défendent l'image et la réputation de leur club comme une religion.
Sensible à l'esprit de camaraderie et à cette volonté d'absolu, Matt se laisse entraîner, mais prend aussi peu à peu conscience des coulisses d'un sport dont les joueurs sont les seigneurs et les fans les mercenaires… Ces cercles très fermés sont prêts à tout pour renforcer leur réputation et asseoir leur suprématie. La compétition ne se déroule pas que sur les stades, et entre ces groupes extrêmes, il n'y a jamais d'arbitre.
Face à sa conscience et son passé qui le rattrape, Matt va devoir choisir ses règles du jeu…

Nom de la release : Hooligans.2005.TRUEFRENCH.DVDRIP.XVID.AC3-Plop 12608″ style= »display:inline; »>

Qualité : DVDRiP
Langue : Français
Taille totale : 1300 Mo

1fichier
Télécharger

Uptobox
Télécharger

Free
Télécharger

Uploaded
Télécharger

Rapidgator
Télécharger

TurboBit
Télécharger

NFO :

Afficher / Masquer le texte c299de06d7a0076b95f0753f0e7b76de » class= »text_spoiler » style= »display:none; »>

General
Complete name : Hooligans.2005.TRUEFRENCH.DVDRIP.XVID.AC3-Plop.avi
Format : AVI
Format/Info : Audio Video Interleave
File size : 1.37 GiB
Duration : 1h 44mn
Overall bit rate : 1 872 Kbps

Video
ID : 0
Format : MPEG-4 Visual
Format profile : Advanced [email protected]
Format settings, BVOP : 2
Format settings, QPel : No
Format settings, GMC : No warppoints
Format settings, Matrix : Default (H.263)
Codec ID : XVID
Codec ID/Hint : XviD
Duration : 1h 44mn
Bit rate : 1 417 Kbps
Width : 640 pixels
Height : 272 pixels
Display aspect ratio : 2.35:1
Frame rate : 25.000 fps
Color space : YUV
Chroma subsampling : 4:2:0
Bit depth : 8 bits
Scan type : Progressive
Compression mode : Lossy
Bits/(Pixel*Frame) : 0.325
Stream size : 1.03 GiB (76%)
Writing library : XviD 1.2.1 (UTC 2008-12-04)

Audio
ID : 1
Format : AC-3
Format/Info : Audio Coding 3
Mode extension : CM (complete main)
Codec ID : 2000
Duration : 1h 44mn
Bit rate mode : Constant
Bit rate : 448 Kbps
Channel(s) : 6 channels
Channel positions : Front: L C R, Side: L R, LFE
Sampling rate : 48.0 KHz
Bit depth : 16 bits
Compression mode : Lossy
Stream size : 335 MiB (24%)
Alignment : Aligned on interleaves
Interleave, duration : 64 ms (1.60 video frames)
Interleave, preload duration : 192 ms
Title : FR AC3 5.1 @448Kbps