Telecharger Hulk [BLURAY 720p] French

(TRUEFRENCH = Vraie voix française)

BLURAY 720p | MULTiLANGUES (avec TRUEFRENCH) | DTS

Hulk

Hulk

Hulk

Origine du film : Américain
Réalisateur : Ang Lee
Acteurs : Lou Ferrigno, Stan Lee, Eric Bana
Genre : Fantastique
Durée : 2h20min
Date de sortie : 2 juillet 2003
Année de production : 2003
Titre Original : The Hulk
Distribué par : United International Pictures (UIP)
Note presse : Hulk 3,2/5
Note spectateurs : Hulk 1,9/5 (9 585)
Bande annonce :

a09779742c66517edece47793fa82968

18352409″>Cliquez-ici pour voir la bande annonce a09779742c66517edece47793fa82968″> 18352409

a09779742c66517edece47793fa82968

Hulk

Au cours d'une opération scientifique qui a mal tourné, le docteur Bruce Banner est exposé à une surdose de radiations nucléaires. Miraculeusement indemne, il sort néanmoins affecté de cette douloureuse expérience et développe le pouvoir de se transformer en Hulk, un monstre vert à la force surhumaine et à la rage incontrôlable. Cette créature ne se manifeste que lorsque ce dernier est soumis à une intense émotion.Mis au ban de la société, le docteur Banner est obligé de se cacher pour ne pas faire subir aux autres sa métamorphose. Le général Ross, le père de Betty, l'ex-petite amie de Bruce, est chargé de stopper le monstre par tous les moyens. Glenn Talbot, rival scientifique de Banner, est également sur les traces de Hulk. Lorsque Betty découvre que la créature a un rapport avec les recherches du père de Bruce, elle devient la seule à pouvoir comprendre ce qu'est Hulk… 45303″ style= »display:inline; »>

Qualité : BLURAY 720p
Format : MKV
Langue : Anglais, Français
Sous-titre : Français
Découpé avec : Winrar
Nombre de fichiers : 6 Fichiers
Taille des fichiers : 1000 Mo 709 Mo

[6 Liens Interchangeables : 5 x 1000 Mo 1 x 709 Mo]

Hulk.MULTi.720p.BluRay.DTS.x264-wazatt ( 5709 Mo)

1fichier
Télécharger

Uptobox
Télécharger

Uploaded
Télécharger

Rapidgator
Télécharger

TurboBit
Télécharger

[1 Lien PREMIUM : 1 x 5.57 GB]

1fichier
Télécharger

Uptobox
Télécharger

TurboBit
Télécharger

[2 Liens PREMIUM]

Uploaded
Partie 1
Partie 2

NFO :

Afficher / Masquer le texte f415d95aad578286c04af89cfcd9657d » class= »text_spoiler » style= »display:none; »>General
Format : Matroska
File size : 5.58 GiB
Duration : 2h 18mn
Overall bit rate : 5 775 Kbps
Encoded date : UTC 2012-06-11 20:41:09
Writing application : mkvmerge v5.6.0 ('Kenya Kane') built on May 27 2012 16:44:04
Writing library : libebml v1.2.3 libmatroska v1.3.0

Video
ID : 1
Format : AVC
Format/Info : Advanced Video Codec
Format profile : [email protected]
Format settings, CABAC : Yes
Format settings, ReFrames : 6 frames
Codec ID : V_MPEG4/ISO/AVC
Duration : 2h 18mn
Bit rate mode : Variable
Bit rate : 3 396 Kbps
Maximum bit rate : 40.0 Mbps
Width : 1 280 pixels
Height : 720 pixels
Display aspect ratio : 16:9
Frame rate mode : Variable
Frame rate : 23.976 fps
Color space : YUV
Chroma subsampling : 4:2:0
Bit depth : 8 bits
Scan type : Progressive
Bits/(Pixel*Frame) : 0.154
Stream size : 3.28 GiB (59%)
Title : Hulk
Writing library : x264 core 120 r2120 0c7dab9
Encoding settings : cabac=1 / ref=6 / deblock=1:-3:-3 / analyse=0x3:0x113 / me=umh / subme=10 / psy=1 / psy_rd=1.00:0.25 / mixed_ref=1 / me_range=64 / chroma_me=1 / trellis=2 / 8x8dct=1 / cqm=0 / deadzone=6,6 / fast_pskip=0 / chroma_qp_offset=-4 / threads=6 / sliced_threads=0 / nr=0 / decimate=1 / interlaced=0 / bluray_compat=0 / constrained_intra=0 / bframes=5 / b_pyramid=2 / b_adapt=2 / b_bias=0 / direct=3 / weightb=1 / open_gop=1 / weightp=2 / keyint=250 / keyint_min=25 / scenecut=40 / intra_refresh=0 / rc_lookahead=250 / rc=crf / mbtree=1 / crf=19.0 / qcomp=0.75 / qpmin=0 / qpmax=51 / qpstep=4 / ip_ratio=1.40 / aq=2:1.0
Language : French

Audio #1
ID : 2
Format : DTS
Format/Info : Digital Theater Systems
Muxing mode : Header stripping
Codec ID : A_DTS
Duration : 2h 18mn
Bit rate mode : Constant
Bit rate : 1 510 Kbps
Channel(s) : 6 channels
Channel positions : Front: L C R, Side: L R, LFE
Sampling rate : 48.0 KHz
Bit depth : 24 bits
Compression mode : Lossy
Stream size : 1.46 GiB (26%)
Title : DTS Audio, English, 1510 kbps, 5.1 channels, 24 bits, 48kHz
Language : English

Audio #2
ID : 3
Format : DTS
Format/Info : Digital Theater Systems
Muxing mode : Header stripping
Codec ID : A_DTS
Duration : 2h 18mn
Bit rate mode : Constant
Bit rate : 754 Kbps
Channel(s) : 6 channels
Channel positions : Front: L C R, Side: L R, LFE
Sampling rate : 48.0 KHz
Bit depth : 24 bits
Compression mode : Lossy
Stream size : 746 MiB (13%)
Title : DTS Audio, French, 754 kbps, 5.1 channels, 24 bits, 48kHz
Language : French

Text #1
ID : 4
Format : UTF-8
Codec ID : S_TEXT/UTF8
Codec ID/Info : UTF-8 Plain Text
Title : sous titres complets srt
Language : French

Text #2
ID : 5
Format : UTF-8
Codec ID : S_TEXT/UTF8
Codec ID/Info : UTF-8 Plain Text
Title : sous titres forcΘs srt
Language : French

Menu
00:00:00.000 : en:00:00:00.000
00:04:21.136 : en:00:04:21.136
00:11:21.681 : en:00:11:21.681
00:13:55.293 : en:00:13:55.293
00:17:24.377 : en:00:17:24.377
00:20:12.962 : en:00:20:12.962
00:22:50.661 : en:00:22:50.661
00:29:17.005 : en:00:29:17.005
00:32:37.956 : en:00:32:37.956
00:37:03.138 : en:00:37:03.138
00:39:24.946 : en:00:39:24.946
00:45:12.960 : en:00:45:12.960
00:49:01.147 : en:00:49:01.147
00:54:11.290 : en:00:54:11.290
00:57:40.123 : en:00:57:40.123
00:59:53.131 : en:00:59:53.131
01:11:14.937 : en:01:11:14.937
01:16:10.733 : en:01:16:10.733
01:19:14.416 : en:01:19:14.416
01:24:54.715 : en:01:24:54.715
01:27:20.944 : en:01:27:20.944
01:32:04.519 : en:01:32:04.519
01:36:14.686 : en:01:36:14.686
01:41:42.346 : en:01:41:42.346
01:47:10.758 : en:01:47:10.758
01:49:49.082 : en:01:49:49.082
01:55:37.055 : en:01:55:37.055
02:02:55.910 : en:02:02:55.910
02:07:34.313 : en:02:07:34.313
02:08:31.370 : en:02:08:31.370
02:11:07.359 : en:02:11:07.359
02:12:41.620 : en:02:12:41.620

Jeux Gratuit
15354131_1854970838071206_1069261547_o.png