Télécharger Hunger Games – La Rvolte : Partie 1

Qualité BDRiP | TRUEFRENCH

Hunger Games - La Révolte : Partie 1

Hunger Games - La Révolte : Partie 1

Origine du film : Américain
Réalisateur : Francis Lawrence
Acteurs : Jennifer Lawrence, Josh Hutcherson, Liam Hemsworth
Genre : Action, Drame, Science fiction
Durée : 2h3min
Date de sortie : 19 novembre 2014
Année de production : 2014
Titre Original : The Hunger Games – Mockingjay : Part 1
Distribué par : Metropolitan FilmExport
Note presse : Hunger Games - La Révolte : Partie 1 3,0/5
Note spectateurs : Hunger Games - La Révolte : Partie 1 3,5/5 (7 721)
Bande annonce :

f80400838f98f159ccc9634a35953896

19548075″>Cliquez-ici pour voir la bande annonce f80400838f98f159ccc9634a35953896″> 19548075

f80400838f98f159ccc9634a35953896

Hunger Games - La Révolte : Partie 1

Katniss Everdeen s’est réfugiée dans le District 13 après avoir détruit à jamais l’arène et les Jeux. Sous le commandement de la Présidente Coin, chef du district, et suivant les conseils de ses amis en qui elle a toute confiance, Katniss déploie ses ailes pour devenir le symbole de la rébellion. Elle va se battre pour sauver Peeta et libérer le pays tout entier, à qui son courage a redonné espoir.
76756″ style= »display:inline; »>

Hunger Games - La Révolte : Partie 1

Format : XviD

Hunger Games - La Révolte : Partie 1


La version TRUEFRENCH:

Hunger.Games.La.Revolte.part.1.2014.TRUEFRENCH.BRRip.XviD-SVR

(1400 Mo, son 5.1)

Uptobox
Télécharger

Uplea
Télécharger

1fichier
Télécharger

Uploaded
Télécharger

Rapidgator
Télécharger

TurboBit
Télécharger

Les versions VFQ:

The.Hunger.Games.Mockingjay.Part.1.2014.FRENCH.BRRiP.XviD.AC3-Slay3R

(1400 Mo, son 5.1)

Uptobox
Télécharger

Uplea
Télécharger

1fichier
Télécharger

Uploaded
Télécharger

Rapidgator
Télécharger

TurboBit
Télécharger

The.Hunger.Games.Mockingjay.Part.1.2014.FRENCH.BDRip.XviD-ZT

(700 Mo, son stéréo)

Uptobox
Télécharger

Uplea
Télécharger

1fichier
Télécharger

Uploaded
Télécharger

Rapidgator
Télécharger

TurboBit
Télécharger

NFO:

Afficher / Masquer le texte f047673d42ee338c5047d0e05557ad02″ class= »text_spoiler » style= »display:none; »>Format : AVI
Format/Info : Audio Video Interleave
File size : 707 MiB
Duration : 2h 2mn
Overall bit rate : 804 Kbps
Writing application : VirtualDubMod 1.5.10.3 | www.virtualdub-fr.org || (build 2550/release)
Writing library : VirtualDubMod build 2550/release

Video
ID : 0
Format : MPEG-4 Visual
Format profile : Advanced [email protected]
Format settings, BVOP : 1
Format settings, QPel : No
Format settings, GMC : No warppoints
Format settings, Matrix : Default (MPEG)
Codec ID : XVID
Codec ID/Hint : XviD
Duration : 2h 2mn
Bit rate : 667 Kbps
Width : 720 pixels
Height : 296 pixels
Display aspect ratio : 2.40:1
Frame rate : 23.976 fps
Color space : YUV
Chroma subsampling : 4:2:0
Bit depth : 8 bits
Scan type : Progressive
Compression mode : Lossy
Bits/(Pixel*Frame) : 0.130
Stream size : 586 MiB (83%)
Writing library : XviD 1.2.1 (UTC 2008-12-04)

Audio
ID : 1
Format : MPEG Audio
Format version : Version 1
Format profile : Layer 3
Codec ID : 55
Codec ID/Hint : MP3
Duration : 2h 2mn
Bit rate mode : Constant
Bit rate : 128 Kbps
Channel(s) : 2 channels
Sampling rate : 48.0 KHz
Compression mode : Lossy
Stream size : 112 MiB (16%)
Alignment : Aligned on interleaves
Interleave, duration : 42 ms (1.00 video frame)
Interleave, preload duration : 504 ms
Writing library : LAME3.99r
Encoding settings : -m s -V 4 -q 2 -lowpass 17 -b 128

Source: DVDR FUTiL


1803
-
Votes : 0