Telecharger Hybrid [BLURAY 720p] French

BLURAY 720p | FRENCH

Hybrid

Hybrid

Hybrid

Origine du film : Américain
Réalisateur : Eric Valette
Acteurs : Shannon Beckner, Oded Fehr, Ryan Kennedy
Genre : Epouvante-horreur
Date de sortie : Octobre 2011
Année de production : 2009
Note spectateurs : Hybrid 1,7/5 (14 notes)

Hybrid

Un soir, tard, une mystérieuse voiture est amenée au garage de la police de Chicago après un terrible accident de la route. Tilda, la mécanicienne, et son jeune second découvrent rapidement que le véhicule possède une volonté propre. Plus encore, il est capable de prendre l'apparence d'autres voitures pour tromper la vigilance des humains et, en lieu et place du ronronnement d'un moteur, il s'échappe de lui un bruit ressemblant étrangement à une respiration. Un combat mortel s'engage entre les humains déterminés à survivre et la voiture que rien ne semble pouvoir arrêter..

Nom de la release : Hybrid.2010.FRENCH.720p.BluRay.x264.Ac3-Smart 8501″ style= »display:inline; »>

Qualité : BLURAY 720p
Format : MKV
Langue : Français
Découpé avec : Winrar
Nombre de fichiers : 5 Fichiers
Taille des fichiers : 1000 Mo 477 Mo
Taille totale : 4477 Mo

[Liens Interchangeables]

Uploaded.to
Télécharger

Uptobox.com
Télécharger

1Fichier
Télécharger

NFO :

Afficher / Masquer le texte f8de5c2bf9d36264ba6a6f16eaccf3f3″ class= »text_spoiler » style= »display:none; »>General
Unique ID : 201765377095468667465188250857193204073 (0x97CA992048DE6463A30DF375032DE969)
Complete name : Hybrid.2010.FRENCH.720p.BluRay.x264.Ac3-Smart.mkv
Format : Matroska
Format version : Version 2
File size : 4.34 GiB
Duration : 1h 30mn
Overall bit rate : 6 851 Kbps
Encoded date : UTC 2011-10-23 21:00:42
Writing application : mkvmerge v4.9.1 ('Ich will') built on Jul 11 2011 23:53:15
Writing library : libebml v1.2.1 libmatroska v1.1.1

Video
ID : 1
Format : AVC
Format/Info : Advanced Video Codec
Format profile : [email protected]
Format settings, CABAC : Yes
Format settings, ReFrames : 3 frames
Frame mode : Frame doubling
Muxing mode : Header stripping
Codec ID : V_MPEG4/ISO/AVC
Duration : 1h 30mn
Bit rate mode : Variable
Bit rate : 6 213 Kbps
Maximum bit rate : 40.0 Mbps
Width : 1 280 pixels
Height : 544 pixels
Display aspect ratio : 2.35:1
Frame rate : 25.000 fps
Color space : YUV
Chroma subsampling : 4:2:0
Bit depth : 8 bits
Scan type : Progressive
Bits/(Pixel*Frame) : 0.357
Stream size : 3.85 GiB (89%)
Writing library : x264 core 105 r1732 2b04482
Encoding settings : cabac=1 / ref=4 / deblock=1:0:0 / analyse=0x3:0x113 / me=hex / subme=7 / psy=1 / psy_rd=1.00:0.00 / mixed_ref=1 / me_range=16 / chroma_me=1 / trellis=1 / 8x8dct=1 / cqm=0 / deadzone=21,11 / fast_pskip=1 / chroma_qp_offset=-2 / threads=6 / sliced_threads=0 / slices=4 / nr=0 / decimate=1 / interlaced=0 / constrained_intra=0 / bframes=3 / b_pyramid=1 / b_adapt=1 / b_bias=0 / direct=1 / weightb=1 / open_gop=2 / weightp=0 / keyint=25 / keyint_min=2 / scenecut=40 / intra_refresh=0 / rc_lookahead=25 / rc=2pass / mbtree=1 / bitrate=6213 / ratetol=1.0 / qcomp=0.60 / qpmin=10 / qpmax=51 / qpstep=4 / cplxblur=20.0 / qblur=0.5 / vbv_maxrate=40000 / vbv_bufsize=30000 / ip_ratio=1.40 / aq=1:1.00 / nal_hrd=vbr
Color primaries : BT.709-5, BT.1361, IEC 61966-2-4, SMPTE RP177
Transfer characteristics : BT.709-5, BT.1361
Matrix coefficients : BT.709-5, BT.1361, IEC 61966-2-4 709, SMPTE RP177

Audio
ID : 2
Format : AC-3
Format/Info : Audio Coding 3
Mode extension : CM (complete main)
Muxing mode : Header stripping
Codec ID : A_AC3
Duration : 1h 30mn
Bit rate mode : Constant
Bit rate : 640 Kbps
Channel(s) : 2 channels
Channel positions : Front: L R
Sampling rate : 48.0 KHz
Bit depth : 16 bits
Compression mode : Lossy
Delay relative to video : 2s 500ms
Stream size : 416 MiB (9%)

Jeux Gratuit
15354131_1854970838071206_1069261547_o.png