Telecharger Identité Secrète [BLURAY 720p] French

Qualité BLURAY 720p | MULTiLANGUES (avec VFQ)

Identité Secrète

Identité Secrète

Origine du film : Américain
Réalisateur : John Singleton
Acteurs : Taylor Lautner, Lily Collins, Alfred Molina
Genre : Action, Thriller
Durée : 1h 40min
Date de sortie : 28 septembre 2011
Année de production : 2011
Titre Original :
Abduction
Distribué par : Metropolitan FilmExport
Note presse : Identité Secrète 1,4/5
Note spectateurs : Identité Secrète 2,6/5 (3588)
Bande annonce :

1c9025f6d04e899562509371aad7ba41

19235268″>Cliquez-ici pour voir la bande annonce 1c9025f6d04e899562509371aad7ba41″> 19235268

1c9025f6d04e899562509371aad7ba41

Identité Secrète

Nathan Harper a toujours éprouvé la désagréable impression de mener une vie qui n’est pas la sienne. Lorsqu’il tombe par hasard sur une photo de lui, enfant, sur un site de personnes disparues, ses peurs les plus sombres deviennent brusquement réalité. Ses parents ne sont pas les siens, sa vie n’est qu’un mensonge soigneusement fabriqué pour cacher une vérité aussi mystérieuse que dangereuse… Alors qu’il commence à rassembler les pièces du puzzle, Nathan est pris pour cible par des tueurs. Il est obligé de fuir en compagnie de la seule personne en qui il ait confiance, sa voisine, Karen. Tandis que les deux jeunes gens s’efforcent d’échapper à une armée de tueurs et d’agents gouvernementaux, Nathan réalise que sa seule chance de survivre – et de résoudre le mystère de sa véritable identité – est d’affronter la situation à sa façon… 10275″ style= »display:inline; »>

Identité Secrète

Format : x264
Découpé avec : Winrar

Identité Secrète

Abduction.2011.MULTI.720p.BluRay.x264-LiberTeam

(5932 Mo)

[Liens Interchangeables entre hébergeurs: 5x 1000 Mo + 1x 932 Mo]

Uptobox
Télécharger

Uplea
Télécharger

1fichier
Télécharger

Uploaded
Télécharger

Rapidgator
Télécharger

TurboBit
Télécharger

[1 Lien PREMIUM : 1 x 5.79 GB]

Uptobox
Télécharger

Uplea
Télécharger

1fichier
Télécharger

Uploaded
Partie 1
Partie 2

TurboBit
Télécharger

NFO :

Afficher / Masquer le texte 37734fc84a55f2c9e0a5065e9108bb71″ class= »text_spoiler » style= »display:none; »>General
Format : Matroska
Format version : Version 2
File size : 5.79 GiB
Duration : 1h 45mn
Overall bit rate : 7 826 Kbps
Encoded date : UTC 2012-01-15 01:57:33
Writing application : mkvmerge v3.4.0 (‘Rapunzel’) built on May 15 2010 09:38:20
Writing library : libebml v0.8.0 + libmatroska v0.9.0

Video
ID : 1
Format : AVC
Format/Info : Advanced Video Codec
Format profile : [email protected]
Format settings, CABAC : Yes
Format settings, ReFrames : 12 frames
Codec ID : V_MPEG4/ISO/AVC
Duration : 1h 45mn
Bit rate : 5 870 Kbps
Width : 1 280 pixels
Height : 534 pixels
Display aspect ratio : 2.40:1
Frame rate mode : Constant
Frame rate : 23.976 fps
Color space : YUV
Chroma subsampling : 4:2:0
Bit depth : 8 bits
Scan type : Progressive
Bits/(Pixel*Frame) : 0.358
Stream size : 4.23 GiB (73%)
Writing library : x264 core 119 r2106 07efeb4
Encoding settings : cabac=1 / ref=12 / deblock=1:-3:-3 / analyse=0x3:0x133 / me=umh / subme=10 / psy=1 / psy_rd=0.95:0.05 / mixed_ref=1 / me_range=48 / chroma_me=1 / trellis=2 / 8x8dct=1 / cqm=0 / deadzone=21,11 / fast_pskip=0 / chroma_qp_offset=-3 / threads=12 / sliced_threads=0 / nr=0 / decimate=0 / interlaced=0 / bluray_compat=0 / constrained_intra=0 / bframes=7 / b_pyramid=2 / b_adapt=2 / b_bias=0 / direct=3 / weightb=1 / open_gop=0 / weightp=2 / keyint=360 / keyint_min=2 / scenecut=40 / intra_refresh=0 / rc_lookahead=90 / rc=2pass / mbtree=1 / bitrate=5870 / ratetol=1.0 / qcomp=0.70 / qpmin=0 / qpmax=69 / qpstep=4 / cplxblur=20.0 / qblur=0.5 / vbv_maxrate=50000 / vbv_bufsize=30000 / nal_hrd=none / ip_ratio=1.40 / aq=2:0.90
Language : English
Default : No
Forced : No

Audio #1
ID : 2
Format : DTS
Format/Info : Digital Theater Systems
Mode : 16
Format settings, Endianness : Big
Codec ID : A_DTS
Duration : 1h 45mn
Bit rate mode : Constant
Bit rate : 1 509 Kbps
Channel(s) : 6 channels
Channel positions : Front: L C R, Side: L R, LFE
Sampling rate : 48.0 KHz
Bit depth : 24 bits
Compression mode : Lossy
Stream size : 1.12 GiB (19%)
Title : English DTS 5.1 CH @ 1509 kbps
Language : English
Default : No
Forced : No

Audio #2
ID : 3
Format : AC-3
Format/Info : Audio Coding 3
Mode extension : CM (complete main)
Format settings, Endianness : Big
Codec ID : A_AC3
Duration : 1h 45mn
Bit rate mode : Constant
Bit rate : 448 Kbps
Channel(s) : 6 channels
Channel positions : Front: L C R, Side: L R, LFE
Sampling rate : 48.0 KHz
Bit depth : 16 bits
Compression mode : Lossy
Stream size : 340 MiB (6%)
Language : French
Default : Yes
Forced : No

Text
ID : 4
Format : UTF-8
Codec ID : S_TEXT/UTF8
Codec ID/Info : UTF-8 Plain Text
Language : French
Default : No
Forced : No