Telecharger Idiocracy [BLURAY 720p] French

(TRUEFRENCH = Vraie voix française)

BLURAY 720p | TRUEFRENCH

Idiocracy

Idiocracy

Idiocracy

Origine du film : Américain
Réalisateur : Mike Judge
Acteurs : Luke Wilson, Dax Shepard, Maya Rudolph
Genre : Comédie, Science fiction
Durée : 1h24min
Date de sortie : 25 avril 2007
Année de production : 2006
Distribué par : Twentieth Century Fox France
Note presse : Idiocracy 3,3/5
Note spectateurs : Idiocracy 2,5/5 (1 632)

Idiocracy

Joe Bowers, l’Américain moyen par excellence, est choisi par le Pentagone comme cobaye d’un programme d’hibernation, qui va mal tourner. Il se réveille 500 ans plus tard et découvre que le niveau intellectuel de l’espèce humaine a radicalement baissé et qu’il est l’homme le plus brillant sur la planète… 45861″ style= »display:inline; »>

Idiocracy

Qualité : BLURAY 720p
Format : MP4
Langue : Français
Découpé avec : Winrar
Nombre de fichiers : 5 Fichiers
Taille des fichiers : 1000 Mo + 117 Mo

Idiocracy

[5 Liens Interchangeables : 4 x 1000 Mo + 1 x 117 Mo]

Idiocracy.2006.FRENCH.720p.BluRay.x264.AAC-LCDS ( 4117 Mo)

Uptobox
Télécharger

Uplea
Télécharger

1fichier
Télécharger

Uploaded
Télécharger

Rapidgator
Télécharger

TurboBit
Télécharger

[1 Lien PREMIUM : 1 x 4.02 GB]

Uptobox
Télécharger

Uplea
Télécharger

1fichier
Télécharger

TurboBit
Télécharger

NFO :

Afficher / Masquer le texte ae640bea89c9d72aea3b5ce23843a7f0″ class= »text_spoiler » style= »display:none; »>General
Complete name : Idiocracy.2006.FRENCH.720p.BluRay.x264.AAC-LCDS.mp4
Format : MPEG-4
Format profile : Base Media
Codec ID : isom
File size : 4.02 GiB
Duration : 1h 24mn
Overall bit rate mode : Variable
Overall bit rate : 6 841 Kbps
Encoded date : UTC 2013-06-04 06:32:17
Tagged date : UTC 2013-06-04 06:32:17
Writing application : My MP4Box GUI 0.6.0.6

Video
ID : 1
Format : AVC
Format/Info : Advanced Video Codec
Format profile : [email protected]
Format settings, CABAC : Yes
Format settings, ReFrames : 5 frames
Codec ID : avc1
Codec ID/Info : Advanced Video Coding
Duration : 1h 24mn
Bit rate : 6 710 Kbps
Maximum bit rate : 21.0 Mbps
Width : 1 280 pixels
Height : 720 pixels
Display aspect ratio : 16:9
Frame rate mode : Constant
Frame rate : 23.976 fps
Color space : YUV
Chroma subsampling : 4:2:0
Bit depth : 8 bits
Scan type : Progressive
Bits/(Pixel*Frame) : 0.304
Stream size : 3.94 GiB (98%)
Writing library : x264 core 130 r2273 b3065e6
Encoding settings : cabac=1 / ref=5 / deblock=1:0:0 / analyse=0x3:0x113 / me=umh / subme=8 / psy=1 / psy_rd=1.00:0.00 / mixed_ref=1 / me_range=16 / chroma_me=1 / trellis=1 / 8x8dct=1 / cqm=0 / deadzone=21,11 / fast_pskip=1 / chroma_qp_offset=-2 / threads=12 / lookahead_threads=2 / sliced_threads=0 / nr=0 / decimate=1 / interlaced=0 / bluray_compat=0 / constrained_intra=0 / bframes=3 / b_pyramid=2 / b_adapt=2 / b_bias=0 / direct=3 / weightb=1 / open_gop=0 / weightp=2 / keyint=240 / keyint_min=24 / scenecut=40 / intra_refresh=0 / rc_lookahead=50 / rc=2pass / mbtree=1 / bitrate=6710 / ratetol=1.0 / qcomp=0.60 / qpmin=0 / qpmax=69 / qpstep=4 / cplxblur=20.0 / qblur=0.5 / vbv_maxrate=62000 / vbv_bufsize=62000 / nal_hrd=none / ip_ratio=1.40 / aq=1:1.00
Encoded date : UTC 2013-06-04 06:32:17
Tagged date : UTC 2013-06-04 06:32:44
Color primaries : BT.709
Transfer characteristics : BT.709
Matrix coefficients : BT.709

Audio
ID : 2
Format : AAC
Format/Info : Advanced Audio Codec
Format profile : LC
Codec ID : 40
Duration : 1h 24mn
Bit rate mode : Variable
Bit rate : 128 Kbps
Maximum bit rate : 144 Kbps
Channel(s) : 2 channels
Channel positions : Front: L R
Sampling rate : 48.0 KHz
Compression mode : Lossy
Stream size : 77.0 MiB (2%)
Title : French.m4a
Language : French
Encoded date : UTC 2013-06-04 06:32:43
Tagged date : UTC 2013-06-04 06:32:44