Telecharger Il était temps [BLURAY 720p] French

(TRUEFRENCH = Vraie voix française)

BLURAY 720p | MULTiLANGUES (Avec TRUEFRENCH)

Il était temps

Il était temps

Il était temps

Origine du film : Britannique
Réalisateur : Richard Curtis
Acteurs : Domhnall Gleeson, Rachel McAdams, Bill Nighy
Genre : Romance
Durée : 2h3min
Date de sortie : 6 novembre 2013
Année de production : 2013
Titre Original : About Time
Distribué par : Universal Pictures International France
Note presse : Il était temps 3,2/5
Note spectateurs : Il était temps

; »>4,2/5 (1 433)
Bande annonce :

ee4662c6e197effc8540d9c4608fa371

19537570″>Cliquez-ici pour voir la bande annonce ee4662c6e197effc8540d9c4608fa371″> 19537570

ee4662c6e197effc8540d9c4608fa371

Il était temps

À l’âge de 21 ans, Tim Lake découvre qu’il a la capacité de voyager dans le temps… Lors de la nuit d’un énième nouvel an particulièrement raté, le père de Tim apprend à son fils que depuis des générations tous les hommes de la famille maîtrisent le voyage intertemporel. Tim ne peut changer l’histoire, mais a le pouvoir d’interférer dans le cours de sa propre existence, qu’elle soit passée ou à venir… Il décide donc de rendre sa vie meilleure… en se trouvant une amoureuse. Malheureusement les choses s’avèrent plus compliquées que prévu. Tim quitte les côtes de la Cornouailles pour faire un stage de droit à Londres et rencontre la belle et fragile Mary. Alors qu’ils tombent amoureux l’un de l’autre, un voyage temporel malencontreux va effacer cette rencontre. C’est ainsi qu’au fil de ses innombrables voyages temporels il n’a de cesse de ruser avec le destin afin de la rencontrer pour la première fois, encore et encore, jusqu’à ce qu’il arrive à gagner son coeur. Tim se sert alors de son pouvoir afin de créer les conditions idéales pour la demande en mariage parfaite, pour sauver la cérémonie à venir du discours catastrophique du pire des garçons d’honneur imaginable mais aussi pour épargner à son meilleur ami un désastre professionnel. Mais alors que le cours de sa vie inhabituelle se déroule, Tim découvre que ce don exceptionnel ne lui épargne pas la peine et les chagrins qui sont communs à n’importe quelle autre famille partout ailleurs. 44628″ style= »display:inline; »>

Qualité : BLURAY 720p
Format : MKV
Sous-titre : Français
Nombre de fichiers : 7 Fichiers
Taille des fichiers : 1000 Mo 281 Mo

Ps: Les liens sont interchangeables, prenez une partie de chaque hébergeur pour télécharger plusieurs fichiers en même temps. smile

About.Time.2013.LiMiTED.MULTi.TRUEFRENCH.720p.BluRay.DTS.AC3.x264 ( 6281 Mo)

1fichier
Télécharger

Uptobox
Télécharger

Uploaded
Télécharger

Rapidgator
Télécharger

TurboBit
Télécharger

1 Lien Premium – 6.1 Go

1fichier
Télécharger

Uptobox
Télécharger

TurboBit
Télécharger

2 Liens Premiums – 3.1 Go 3 Go

Uploaded
Télécharger

NFO :

Afficher / Masquer le texte c19eda652d6bffb5168f5f529ffc604b » class= »text_spoiler » style= »display:none; »>General
Unique ID : 227109637753335510027200585192697466922 (0xAADBB9A6C29C4981908140BF073B902A)
Complete name : About.Time.2013.LiMiTED.MULTi.720p.BluRay.DTS.AC3.x264.mkv
Format : Matroska
Format version : Version 4 / Version 2
File size : 6.13 GiB
Duration : 2h 3mn
Overall bit rate : 7 118 Kbps
Movie name : About.Time.2013.720p.BluRay.AC3.x264-decibeL
Encoded date : UTC 2014-01-26 08:37:02
Writing application : mkvmerge v6.7.0 ('Back to the Ground') 64bit built on Jan 8 2014 15:10:52
Writing library : libebml v1.3.0 libmatroska v1.4.1

Video
ID : 1
Format : AVC
Format/Info : Advanced Video Codec
Format profile : [email protected]
Format settings, CABAC : Yes
Format settings, ReFrames : 12 frames
Codec ID : V_MPEG4/ISO/AVC
Duration : 2h 3mn
Bit rate : 5 222 Kbps
Width : 1 280 pixels
Height : 534 pixels
Display aspect ratio : 2.40:1
Frame rate mode : Constant
Frame rate : 23.976 fps
Color space : YUV
Chroma subsampling : 4:2:0
Bit depth : 8 bits
Scan type : Progressive
Bits/(Pixel*Frame) : 0.319
Stream size : 4.38 GiB (71%)
Title : About.Time.2013.LiMiTED.MULTi.720p.BluRay.DTS.AC3.x264
Writing library : x264 core 138 r2358 9e941d1
Encoding settings : cabac=1 / ref=12 / deblock=1:-3:-3 / analyse=0x3:0x113 / me=umh / subme=11 / psy=1 / psy_rd=0.97:0.00 / mixed_ref=1 / me_range=64 / chroma_me=1 / trellis=2 / 8x8dct=1 / cqm=0 / deadzone=21,11 / fast_pskip=0 / chroma_qp_offset=-2 / threads=6 / lookahead_threads=1 / sliced_threads=0 / nr=0 / decimate=0 / interlaced=0 / bluray_compat=0 / constrained_intra=0 / bframes=10 / b_pyramid=2 / b_adapt=2 / b_bias=0 / direct=3 / weightb=1 / open_gop=0 / weightp=2 / keyint=240 / keyint_min=23 / scenecut=40 / intra_refresh=0 / rc_lookahead=80 / rc=2pass / mbtree=1 / bitrate=5222 / ratetol=1.0 / qcomp=0.60 / qpmin=0 / qpmax=69 / qpstep=4 / cplxblur=20.0 / qblur=0.5 / vbv_maxrate=38000 / vbv_bufsize=30000 / nal_hrd=none / ip_ratio=1.20 / aq=2:0.90
Default : Yes
Forced : Yes
Matrix coefficients : BT.709

Audio #1
ID : 2
Format : DTS
Format/Info : Digital Theater Systems
Mode : 16
Format settings, Endianness : Big
Codec ID : A_DTS
Duration : 2h 3mn
Bit rate mode : Constant
Bit rate : 1 509 Kbps
Channel(s) : 6 channels
Channel positions : Front: L C R, Side: L R, LFE
Sampling rate : 48.0 KHz
Bit depth : 24 bits
Compression mode : Lossy
Stream size : 1.30 GiB (21%)
Title : DTS 5.1 @ 1509 Kbps
Language : English
Default : No
Forced : No

Audio #2
ID : 3
Format : AC-3
Format/Info : Audio Coding 3
Mode extension : CM (complete main)
Format settings, Endianness : Big
Codec ID : A_AC3
Duration : 2h 3mn
Bit rate mode : Constant
Bit rate : 384 Kbps
Channel(s) : 6 channels
Channel positions : Front: L C R, Side: L R, LFE
Sampling rate : 48.0 KHz
Bit depth : 16 bits
Compression mode : Lossy
Delay relative to video : 512ms
Stream size : 339 MiB (5%)
Title : AC3 5.1 @ 384 Kbps
Language : French
Default : Yes
Forced : No

Text #1
ID : 4
Format : UTF-8
Codec ID : S_TEXT/UTF8
Codec ID/Info : UTF-8 Plain Text
Title : Z2 Forced
Language : French
Default : Yes
Forced : No

Text #2
ID : 5
Format : UTF-8
Codec ID : S_TEXT/UTF8
Codec ID/Info : UTF-8 Plain Text
Title : Z2 Full
Language : French
Default : No
Forced : No

Jeux Gratuit
15354131_1854970838071206_1069261547_o.png