Telecharger Il était une fois en Amérique [DVDRiP] French

BLURAY 720p | FRENCH

Il était une fois en Amérique

Il était une fois en Amérique

Il était une fois en Amérique

Origine du film : Américain, italien
Réalisateur : Sergio Leone
Acteurs : Robert De Niro, James Woods, Elizabeth McGovern
Genre : Drame, Policier
Durée : 3h 49min
Date de sortie : 23 mai 1984
Année de production : 1984
Titre Original : Once Upon a Time in America
Note presse : Il était une fois en Amérique 4,7/5
Note spectateurs : Il était une fois en Amérique 4,4/5 (9 027)
Bande annonce :

5b9fd67fc85ade068d67ba7ce382e21a

19216618″>Cliquez-ici pour voir la bande annonce 5b9fd67fc85ade068d67ba7ce382e21a »> 19216618

5b9fd67fc85ade068d67ba7ce382e21a

Il était une fois en Amérique

Il était une fois deux truands juifs, Max et Noodles, liés par un pacte d'éternelle amitié. Débutant au début du siècle par de fructueux trafics dans le ghetto de New York, ils voient leurs chemins se séparer, lorsque Noodles se retrouve durant quelques années derrière les barreaux, puis se recouper en pleine période de prohibition, dans les années vingt. Jusqu'au jour où la trahison les sépare à nouveau.

Nom de la release : Once.Upon.A.Time.In.America.1984.FRENCH.720p.BluRay.x264.AC3-TMB 18574″ style= »display:inline; »>

Qualité : BLURAY 720p
Format : MKV
Langue : Français
Sous-titre : Français
Découpé avec : Winrar
Nombre de fichiers : 12 Fichiers
Taille des fichiers : 998 Mo 117 Mo
Taille totale : 11095 Mo

[Liens Interchangeables – 11 liens de 1Go 1 lien de 117 Mo]

Ps: Vous pouvez prendre une partie sur chaque hébergeur, pour télécharger plusieurs fichiers en même temps. smile

1fichier.com
Télécharger

Uptobox.com
Télécharger

Free
Télécharger

Uploaded.net
Télécharger

Rapidgator.net
Télécharger

TurboBit.net
Télécharger

[ 1 lien Premium – 10,7 Go]

1fichier.com
Télécharger

Uptobox.com Premium
Télécharger

Free
Télécharger

TurboBit.net Premium
Télécharger

NFO :

Afficher / Masquer le texte 44f4d9a78d0ce08090b924ae627f1db2″ class= »text_spoiler » style= »display:none; »>Format : Matroska
Format version : Version 2
File size : 10.7 GiB
Duration : 3h 49mn
Overall bit rate : 6 695 Kbps
Encoded date : UTC 2012-10-25 22:55:38
Writing application : mkvmerge v4.5.0 ('Speed of Light') built on Feb 23 2011 01:17:16
Writing library : libebml v1.2.0 libmatroska v1.1.0

Video
ID : 1
Format : AVC
Format/Info : Advanced Video Codec
Format profile : [email protected]
Format settings, CABAC : Yes
Format settings, ReFrames : 8 frames
Muxing mode : Header stripping
Codec ID : V_MPEG4/ISO/AVC
Duration : 3h 49mn
Bit rate : 6 055 Kbps
Width : 1 280 pixels
Height : 688 pixels
Display aspect ratio : 1.85:1
Frame rate mode : Constant
Frame rate : 23.976 fps
Color space : YUV
Chroma subsampling : 4:2:0
Bit depth : 8 bits
Scan type : Progressive
Bits/(Pixel*Frame) : 0.287
Stream size : 9.49 GiB (88%)
Title : English
Writing library : x264 core 120
Encoding settings : cabac=1 / ref=9 / deblock=1:-3:-3 / analyse=0x3:0 / me=umh / subme=8 / psy=1 / psy_rd=1,00:0,00 / mixed_ref=1 / me_range=16 / chroma_me=1 / trellis=2 / 8x8dct=1 / cqm=0 / deadzone=21,11 / fast_pskip=0 / chroma_qp_offset=-2 / threads=6 / sliced_threads=0 / nr=0 / decimate=1 / interlaced=0 / bluray_compat=0 / constrained_intra=0 / bframes=4 / b_pyramid=1 / b_adapt=2 / b_bias=0 / direct=1 / weightb=1 / open_gop=0 / weightp=2 / keyint=240 / keyint_min=24 / scenecut=40 / intra_refresh=0 / rc_lookahead=120 / rc=2pass / mbtree=1 / bitrate=6055 / ratetol=1,0 / qcomp=0,60 / qpmin=3 / qpmax=69 / qpstep=4 / cplxblur=20,0 / qblur=0,5 / ip_ratio=1,40 / aq=1:1,00
Language : English
Default : Yes
Forced : No
Color primaries : BT.709
Transfer characteristics : BT.709
Matrix coefficients : BT.709

Audio
ID : 2
Format : AC-3
Format/Info : Audio Coding 3
Mode extension : CM (complete main)
Format settings, Endianness : Big
Muxing mode : Header stripping
Codec ID : A_AC3
Duration : 3h 49mn
Bit rate mode : Constant
Bit rate : 640 Kbps
Channel(s) : 6 channels
Channel positions : Front: L C R, Side: L R, LFE
Sampling rate : 48.0 KHz
Bit depth : 16 bits
Compression mode : Lossy
Stream size : 1.03 GiB (10%)
Title : French
Language : French
Default : Yes
Forced : No

Text
ID : 3
Format : UTF-8
Codec ID : S_TEXT/UTF8
Codec ID/Info : UTF-8 Plain Text
Title : Forced
Language : French
Default : Yes
Forced : No