Télécharger Inferno Blu-Ray 3D

(TRUEFRENCH = Vraie voix française)

Qualité BLURAY 3D TB | TRUEFRENCH | son DTS

Inferno

Inferno

Origine du film : Hong-Kongais
Réalisateur : Oxide Pang
Acteurs : Louis Koo, Ching Wan Lau, Angelica Lee
Genre : Action, Drame
Année de production : 2013
Titre Original : Out Of Inferno
Distribué par : Seven 7
Note spectateurs : Inferno 2,8/5 (14)
Bande annonce :

16894fbfcefa9afe513863f02a7ee336

19551089″>Cliquez-ici pour voir la bande annonce 16894fbfcefa9afe513863f02a7ee336″> 19551089

16894fbfcefa9afe513863f02a7ee336

Inferno

Un building de 50 étages. Une simple négligence.Des milliers de personnes prises au piège par l’incendie le plus dévastateur de la décennie.Seul rempart contre les flammes, une escouade de soldats du feu surentrainée et prête à tout pour intervenir.
79913″ style= »display:inline; »>

Inferno

Format : MKV

Inferno

Inferno.3D-2014-VFF.Top.Bottom.1080p.BluRay.x264.DTS.AC3.5.1-H72-3D

(13007 Mo)

[Liens Interchangeables entre hébergeurs: 13x 1000 Mo + 1x 7 Mo]

Uptobox
Télécharger

Uplea
Télécharger

1fichier
Télécharger

Uploaded
Télécharger

Rapidgator
Télécharger

TurboBit
Télécharger

1 Lien Premium – 12.7 Go

Uptobox Premium
Télécharger

Uplea Premium
Télécharger

1fichier Premium
Télécharger

Uploaded Premium
Télécharger

TurboBit Premium
Télécharger

NFO :

Afficher / Masquer le texte e07862ffc1ad3706e4758d3d6698f52a » class= »text_spoiler » style= »display:none; »>General
Unique ID : 248527317547933948441714871696054727543 (0xBAF89ECB1694D3CEBA27F493A016B377)
Complete name : Inferno 3D-2014-VFF.Top Bottom.1080p.BluRay.x264.DTS.AC3.5.1-H72-3D.mkv
Format : Matroska
Format version : Version 4 / Version 2
File size : 12.7 GiB
Duration : 1h 47mn
Overall bit rate : 16.9 Mbps
Encoded date : UTC 2015-03-26 11:03:22
Writing application : mkvmerge v6.8.0 (‘Theme for Great Cities’) 32bit built on Mar 2 2014 21:27:07
Writing library : x264 0.142.2389 956c8d8 / (libswscale 2.5.101) / (libavformat 55.25.101) / (ffmpegsource 2.17.4.0) / built by Komisar on Jan 22 2014, gcc: 4.8.2 (multilib.generic.Komisar) / configuration: –bit-depth=8 –chroma-format=all / x264 license: GPL version 2 or later / libswscale/libavformat/ffmpegsource license: GPL version 2 or later / (32bit)
Original source form : Blu-ray 3D
TITLE : INFERNO
AUTHOR : BD3D2MK3D 0.34
ENCODER_SETTINGS : –crf 17 –preset medium –profile high –level 4.1 –keyint 96 –frame-packing 4 –qpfile chapters_3D.qpfile
DATE_ENCODED : 2015-03-23
Attachment : Yes / Yes

Video
ID : 1
Format : AVC
Format/Info : Advanced Video Codec
Format profile : [email protected]
MultiView_Count : 2
MultiView_Layout : Top-Bottom (left eye first)
Format settings, CABAC : Yes
Format settings, ReFrames : 4 frames
Codec ID : V_MPEG4/ISO/AVC
Duration : 1h 47mn
Bit rate : 14.4 Mbps
Width : 1 920 pixels
Height : 1 080 pixels
Display aspect ratio : 16:9
Frame rate mode : Constant
Frame rate : 23.976 fps
Color space : YUV
Chroma subsampling : 4:2:0
Bit depth : 8 bits
Scan type : Progressive
Bits/(Pixel*Frame) : 0.289
Stream size : 10.8 GiB (85%)
Writing library : x264 core 142 r2389 956c8d8
Encoding settings : cabac=1 / ref=4 / deblock=1:-1:-1 / analyse=0x3:0x113 / me=umh / subme=9 / psy=1 / psy_rd=1.00:0.00 / mixed_ref=1 / me_range=24 / chroma_me=1 / trellis=1 / 8x8dct=1 / cqm=0 / deadzone=21,11 / fast_pskip=1 / chroma_qp_offset=-2 / threads=3 / lookahead_threads=1 / sliced_threads=0 / nr=0 / decimate=1 / interlaced=0 / bluray_compat=0 / constrained_intra=0 / bframes=6 / b_pyramid=2 / b_adapt=2 / b_bias=0 / direct=1 / weightb=1 / open_gop=0 / weightp=2 / keyint=96 / keyint_min=9 / scenecut=40 / intra_refresh=0 / rc=crf / mbtree=0 / crf=17.0 / qcomp=0.70 / qpmin=0 / qpmax=69 / qpstep=4 / frame-packing=4 / ip_ratio=1.30 / pb_ratio=1.20 / aq=1:0.80
Language : French
Default : Yes
Forced : No

Audio #1
ID : 2
Format : DTS
Format/Info : Digital Theater Systems
Mode : 16
Format settings, Endianness : Big
Codec ID : A_DTS
Duration : 1h 47mn
Bit rate mode : Constant
Bit rate : 1 509 Kbps
Channel(s) : 6 channels
Channel positions : Front: L C R, Side: L R, LFE
Sampling rate : 48.0 KHz
Bit depth : 16 bits
Compression mode : Lossy
Stream size : 1.14 GiB (9%)
Title : French DTS 24 bits 6 [email protected] kbps
Language : French
Default : Yes
Forced : No

Audio #2
ID : 3
Format : AC-3
Format/Info : Audio Coding 3
Mode extension : CM (complete main)
Format settings, Endianness : Big
Codec ID : A_AC3
Duration : 1h 47mn
Bit rate mode : Constant
Bit rate : 640 Kbps
Channel(s) : 6 channels
Channel positions : Front: L C R, Side: L R, LFE
Sampling rate : 48.0 KHz
Bit depth : 16 bits
Compression mode : Lossy
Stream size : 494 MiB (4%)
Title : French AC-3 16 bits 6 [email protected] kbps
Language : French
Default : No
Forced : No

Text #1
ID : 4
Format : VobSub
Muxing mode : zlib
Codec ID : S_VOBSUB
Codec ID/Info : The same subtitle format used on DVDs
Title : French (3D PGS)
Language : French
Default : No
Forced : No

Text #2
ID : 5
Format : VobSub
Muxing mode : zlib
Codec ID : S_VOBSUB
Codec ID/Info : The same subtitle format used on DVDs
Title : French forced (3D PGS)
Language : French
Default : Yes
Forced : Yes

Menu
00:00:00.000 : :1 – 0:00:00
00:05:32.331 : :2 – 0:05:32
00:11:48.207 : :3 – 0:11:48
00:18:07.211 : :4 – 0:18:07
00:29:20.049 : :5 – 0:29:20
00:35:34.382 : :6 – 0:35:34
00:41:52.551 : :7 – 0:41:52
00:48:12.931 : :8 – 0:48:12
00:59:14.217 : :9 – 0:59:14
01:11:13.894 : :10 – 1:11:13
01:22:32.447 : :11 – 1:22:32
01:39:21.288 : :12 – 1:39:21
01:47:53.592 : :13 – 1:47:53