Telecharger Intégrale Freddy Chapitre 1 à 5 [DVDRiP] French

BLURAY 1080p | MULTiLANGUES | DTS

Intégrale Freddy Chapitre 1 à 5

Intégrale Freddy Chapitre 1 à 5

Intégrale Freddy Chapitre 1 à 5

Origine du film : U.S.A
Réalisateur : Wes Craven;Jack Sholder ,Chuck Russell ,Renny Harlin ,Stephen Hopkins ,Rachel Talalay ,Ronny Yu ,Samuel Bayer
Acteurs : Heather Langenkamp ,johnny Depp ,Robert Englund ,Patricia Arquette ,Lisa Wilcox ,Kelly Rowland ,Jackie Earle Haley
Genre : Epouvente-horreur
Durée : 01h31min
Date de sortie : 1984 a 2010
Note spectateurs : Intégrale Freddy Chapitre 1 à 5 4/5

Intégrale Freddy Chapitre 1 à 5

C’est un pur produit du cinéma fantastique et une icône du cinéma d’horreur que l’on peut apparenter au Croque-mitaine en tant que monstre au gant hérissé de lames et poursuivant ses victimes dans leurs rêves pour les faire mourir de terreur.Durant son enfance, maltraité par son père adoptif, il finit par prendre goût à la souffrance physique, ce qui explique le sadisme avec lequel il tue ses victimes. Son masochisme est également tel que, dans certains opus, on le voit tantôt se trancher les doigts, tantôt s’arracher le cuir chevelu jusqu’à se découvrir le cerveau.Freddy ne tolère pas que qui que ce soit vive paisiblement dans la maison où il a subi tant de sévices et de souffrances. C’est pour cette raison qu’il se « spécialise » dans ce quartier, redoublant toujours davantage de cruauté, souvent doublée d’humour noir, envers ses nombreuses victimes…

Nom de la release : Integrale.Freddy.Chapitre.1.5.MULTi.1080p.BluRay.x264-Cris01 17553″ style= »display:inline; »>

Qualité : BLURAY 1080p
Format : MKV
Langue : Multilangage
Sous-titre : Français
Découpé avec : Winrar
Taille totale : 38.09 GB

Freddy – Chapitre 1 Les Griffes de la Nuit

1fichier
Télécharger

Uptobox
Télécharger

Free
Télécharger

Uploaded
Télécharger

Rapidgator
Télécharger

TurboBit
Télécharger

Freddy – Chapitre 2 La revanche de Freddy

1fichier
Télécharger

Uptobox
Télécharger

Free
Télécharger

Uploaded
Télécharger

Rapidgator
Télécharger

TurboBit
Télécharger

Freddy – Chapitre 3 Les griffes du cauchemar

1fichier
Télécharger

Uptobox
Télécharger

Free
Télécharger

Uploaded
Télécharger

Rapidgator
Télécharger

TurboBit
Télécharger

Freddy – Chapitre 4 Le cauchemar de Freddy

1fichier
Télécharger

Uptobox
Télécharger

Free
Télécharger

Uploaded
Télécharger

Rapidgator
Télécharger

TurboBit
Télécharger

Freddy – Chapitre 5 L'enfant du cauchemar

1fichier
Télécharger

Uptobox
Télécharger

Free
Télécharger

Uploaded
Télécharger

Rapidgator
Télécharger

TurboBit
Télécharger

NFO :

Afficher / Masquer le texte 40b752ad8876f1583052b475f64c5d60″ class= »text_spoiler » style= »display:none; »>Format : Matroska
Format version : Version 2
File size : 7.48 GiB
Duration : 1h 29mn
Overall bit rate : 11.9 Mbps
Encoded date : UTC 2012-04-20 14:48:30
Writing application : mkvmerge v4.9.1 ('Ich will') built on Jul 11 2011 23:53:15
Writing library : libebml v1.2.1 libmatroska v1.1.1

Video
ID : 1
Format : AVC
Format/Info : Advanced Video Codec
Format profile : [email protected]
Format settings, CABAC : Yes
Format settings, ReFrames : 4 frames
Muxing mode : Header stripping
Codec ID : V_MPEG4/ISO/AVC
Duration : 1h 29mn
Bit rate : 9 999 Kbps
Width : 1 920 pixels
Height : 1 080 pixels
Display aspect ratio : 16:9
Frame rate : 23.976 fps
Color space : YUV
Chroma subsampling : 4:2:0
Bit depth : 8 bits
Scan type : Progressive
Bits/(Pixel*Frame) : 0.201
Stream size : 6.11 GiB (82%)
Writing library : x264 core 120 r2120 0c7dab9
Encoding settings : cabac=1 / ref=4 / deblock=1:-3:-3 / analyse=0x3:0x113 / me=umh / subme=11 / psy=1 / psy_rd=0.90:0.02 / mixed_ref=1 / me_range=64 / chroma_me=1 / trellis=2 / 8x8dct=1 / cqm=0 / deadzone=21,11 / fast_pskip=0 / chroma_qp_offset=-3 / threads=6 / sliced_threads=0 / nr=0 / decimate=1 / interlaced=0 / bluray_compat=0 / constrained_intra=0 / bframes=5 / b_pyramid=2 / b_adapt=2 / b_bias=0 / direct=1 / weightb=1 / open_gop=1 / weightp=2 / keyint=240 / keyint_min=23 / scenecut=40 / intra_refresh=0 / rc_lookahead=200 / rc=2pass / mbtree=1 / bitrate=9999 / ratetol=1.0 / qcomp=0.60 / qpmin=10 / qpmax=51 / qpstep=4 / cplxblur=20.0 / qblur=0.5 / ip_ratio=1.40 / aq=1:1.00
Language : French

Audio #1
ID : 2
Format : AC-3
Format/Info : Audio Coding 3
Mode extension : CM (complete main)
Muxing mode : Header stripping
Codec ID : A_AC3
Duration : 1h 29mn
Bit rate mode : Constant
Bit rate : 448 Kbps
Channel(s) : 6 channels
Channel positions : Front: L C R, Side: L R, LFE
Sampling rate : 48.0 KHz
Bit depth : 16 bits
Compression mode : Lossy
Stream size : 287 MiB (4%)
Title : Francais [email protected]
Language : French

Audio #2
ID : 3
Format : DTS
Format/Info : Digital Theater Systems
Muxing mode : Header stripping
Codec ID : A_DTS
Duration : 1h 29mn
Bit rate mode : Constant
Bit rate : 1 510 Kbps
Channel(s) : 6 channels
Channel positions : Front: L C R, Side: L R, LFE
Sampling rate : 48.0 KHz
Bit depth : 24 bits
Compression mode : Lossy
Stream size : 968 MiB (13%)
Title : Anglais [email protected]
Language : English

Text
ID : 4
Format : UTF-8
Codec ID : S_TEXT/UTF8
Codec ID/Info : UTF-8 Plain Text
Title : Francais Complets
Language : French

Jeux Gratuit
15354131_1854970838071206_1069261547_o.png