Telecharger Into the Woods, Promenons-nous dans les bois [BLURAY 720p] French

Qualité BLURAY 720p | FRENCH

Into the Woods, Promenons-nous dans les bois

Into the Woods, Promenons-nous dans les bois

Origine du film : Américain, Britannique, Canadien
Réalisateur : Rob Marshall
Acteurs : Meryl Streep, James Corden, Emily Blunt
Genre : Fantastique, Comédie musicale, Aventure
Durée : 2h5min
Date de sortie : 28 janvier 2015
Année de production : 2014
Titre Original : Into the Woods
Distribué par : The Walt Disney Company France
Note presse : Into the Woods, Promenons-nous dans les bois 2,9/5
Note spectateurs : Into the Woods, Promenons-nous dans les bois

; »>2,3/5 (899)
Bande annonce :

18742eeb0a063ab4724f4e8d67a94ee1

19549310″>Cliquez-ici pour voir la bande annonce 18742eeb0a063ab4724f4e8d67a94ee1″> 19549310

18742eeb0a063ab4724f4e8d67a94ee1

Into the Woods, Promenons-nous dans les bois

Les intrigues de plusieurs contes de fées bien connues se croisent afin d’explorer les désirs, les rêves et les quêtes de tous les personnages. Cendrillon, le Petit Chaperon rouge, Jack et le haricot magique et Raiponce, tous sont réunis dans un récit où interviennent également un boulanger et sa femme qui espèrent fonder une famille, mais à qui une sorcière a jeté un mauvais sort…
78165″ style= »display:inline; »>

Into the Woods, Promenons-nous dans les bois

Format : MKV
Découpé avec : Winrar

Into the Woods, Promenons-nous dans les bois

Into.the.Woods.2014.FRENCH.720p.BluRay.x264-TransFlash

(4588 Mo)

[Liens Interchangeables entre hébergeurs: 4x 1000 Mo + 1x 588 Mo]

Uptobox
Télécharger

Uplea
Télécharger

1fichier
Télécharger

Uploaded
Télécharger

Rapidgator
Télécharger

TurboBit
Télécharger

[ 1 lien Premium – 4,5 Go ]

Uptobox
Télécharger

Uplea
Télécharger

1fichier
Télécharger

Uploaded
Télécharger

Rapidgator
Télécharger

TurboBit
Télécharger

NFO :

Afficher / Masquer le texte 51383bfb8f237b0ff65d2725938964f2″ class= »text_spoiler » style= »display:none; »>General
Complete name : Into.the.Woods.2014.FRENCH.720p.BluRay.x264-TransFlash.mkv
Format : Matroska
Format version : Version 4 / Version 2
File size : 4.48 GiB
Duration : 2h 4mn
Overall bit rate : 5 141 Kbps
Encoded date : UTC 2015-03-14 02:44:13
Writing application : mkvmerge v6.0.0 (‘Coming Up For Air’) built on Jan 20 2013 09:52:00
Writing library : libebml v1.3.0 + libmatroska v1.4.0

Video
ID : 1
Format : AVC
Format/Info : Advanced Video Codec
Format profile : [email protected]
Format settings, CABAC : Yes
Format settings, ReFrames : 5 frames
Codec ID : V_MPEG4/ISO/AVC
Duration : 2h 4mn
Bit rate : 4 756 Kbps
Width : 1 280 pixels
Height : 536 pixels
Display aspect ratio : 2.40:1
Frame rate mode : Constant
Frame rate : 23.976 fps
Color space : YUV
Chroma subsampling : 4:2:0
Bit depth : 8 bits
Scan type : Progressive
Bits/(Pixel*Frame) : 0.289
Stream size : 4.06 GiB (91%)
Writing library : x264 core 144 r2525 40bb568
Encoding settings : cabac=1 / ref=5 / deblock=1:0:0 / analyse=0x3:0x133 / me=umh / subme=7 / psy=1 / psy_rd=1.00:0.00 / mixed_ref=1 / me_range=16 / chroma_me=1 / trellis=1 / 8x8dct=1 / cqm=0 / deadzone=21,11 / fast_pskip=0 / chroma_qp_offset=-2 / threads=60 / lookahead_threads=4 / sliced_threads=0 / nr=0 / decimate=1 / interlaced=0 / bluray_compat=0 / constrained_intra=0 / bframes=3 / b_pyramid=2 / b_adapt=1 / b_bias=0 / direct=1 / weightb=1 / open_gop=0 / weightp=2 / keyint=250 / keyint_min=23 / scenecut=40 / intra_refresh=0 / rc_lookahead=40 / rc=2pass / mbtree=1 / bitrate=4756 / ratetol=1.0 / qcomp=0.60 / qpmin=0 / qpmax=69 / qpstep=4 / cplxblur=20.0 / qblur=0.5 / ip_ratio=1.40 / aq=1:1.00
Language : English
Default : Yes
Forced : No

Audio
ID : 2
Format : AC-3
Format/Info : Audio Coding 3
Mode extension : CM (complete main)
Format settings, Endianness : Big
Codec ID : A_AC3
Duration : 2h 4mn
Bit rate mode : Constant
Bit rate : 384 Kbps
Channel(s) : 6 channels
Channel positions : Front: L C R, Side: L R, LFE
Sampling rate : 48.0 KHz
Bit depth : 16 bits
Compression mode : Lossy
Stream size : 343 MiB (7%)
Title : vfq
Language : French
Default : Yes
Forced : No

Text
ID : 3
Format : UTF-8
Codec ID : S_TEXT/UTF8
Codec ID/Info : UTF-8 Plain Text
Title : fr_forced
Language : French
Default : Yes
Forced : Yes

Menu
00:00:00.000 : en:00:00:00.000
00:16:24.275 : en:00:16:24.275
00:18:02.164 : en:00:18:02.164
00:21:30.998 : en:00:21:30.998
00:26:37.846 : en:00:26:37.846
00:28:28.415 : en:00:28:28.415
00:30:08.765 : en:00:30:08.765
00:32:50.969 : en:00:32:50.969
00:33:31.885 : en:00:33:31.885
00:37:18.027 : en:00:37:18.027
00:40:44.984 : en:00:40:44.984
00:42:27.128 : en:00:42:27.128
00:46:13.604 : en:00:46:13.604
00:48:53.180 : en:00:48:53.180
00:54:39.109 : en:00:54:39.109
00:57:50.926 : en:00:57:50.926
01:00:02.808 : en:01:00:02.808
01:03:33.977 : en:01:03:33.977
01:08:32.859 : en:01:08:32.859
01:10:14.335 : en:01:10:14.335
01:14:47.525 : en:01:14:47.525
01:21:45.567 : en:01:21:45.567
01:24:00.827 : en:01:24:00.827
01:29:15.267 : en:01:29:15.267
01:33:29.437 : en:01:33:29.437
01:36:32.996 : en:01:36:32.996
01:40:53.422 : en:01:40:53.422
01:43:59.150 : en:01:43:59.150
01:45:49.885 : en:01:45:49.885
01:49:38.947 : en:01:49:38.947
01:53:44.985 : en:01:53:44.985
01:57:23.828 : en:01:57:23.828

Source Video Bluray US
Source audio et sous titre : DVD5

Jeux Gratuit
15354131_1854970838071206_1069261547_o.png