Telecharger Intolérance [DVDRiP] French

Qualité DVDRiP | FRENCH

Intolérance

Intolérance

Intolérance

Origine du film : Américain
Réalisateur : D.W. Griffith
Acteurs : Robert Harron, Mae Marsh, Miriam Cooper
Genre : Drame, Historique
Durée : 3h 0min
Date de sortie : 12 mai 1919
Année de production : 1916
Titre Original : Intolerance
Note spectateurs : Intolérance

; »>3,5/5 (153)

Intolérance

A travers l’image d’une femme berçant un enfant, quatre épisodes de l’intolérance sont racontés dans une fresque monumentale. Un épisode moderne sur un gréviste condamné à la pendaison. Un épisode biblique lors d’une noce à Cana. Un épisode des guerres de religion au temps de Charles IX. Un épisode chaldeen. Dans tous l’intolérance l’emporte sur l’amour. 27216″ style= »display:inline; »>

Qualité : DVDRiP
Format : XviD
Langue : Français
Taille totale : 1400 Mo

1fichier
Télécharger

Uptobox
Télécharger

Free
Télécharger

Uploaded
Télécharger

TurboBit
Télécharger

Mega
Télécharger

NFO :

Afficher / Masquer le texte d55d802166aa6581f42350989bc671fb » class= »text_spoiler » style= »display:none; »>Format : AVI
Format/Info : Audio Video Interleave
File size : 1.28 GiB
Duration : 2h 57mn
Overall bit rate : 1 031 Kbps
Movie name : NO_LABEL
Writing application : MEncoder dev-SVN-r21190-4.1.1
Writing library : VirtualDub build 32842/release

Video
ID : 0
Format : MPEG-4 Visual
Format profile : Advanced [email protected]
Format settings, BVOP : 2
Format settings, QPel : No
Format settings, GMC : No warppoints
Format settings, Matrix : Default (H.263)
Muxing mode : Packed bitstream
Codec ID : XVID
Codec ID/Hint : XviD
Duration : 2h 57mn
Bit rate : 894 Kbps
Width : 640 pixels
Height : 480 pixels
Display aspect ratio : 4:3
Frame rate : 25.000 fps
Color space : YUV
Chroma subsampling : 4:2:0
Bit depth : 8 bits
Scan type : Progressive
Compression mode : Lossy
Bits/(Pixel*Frame) : 0.116
Stream size : 1.11 GiB (87%)
Writing library : XviD 1.0.3 (UTC 2004-12-20)

Audio
ID : 1
Format : MPEG Audio
Format version : Version 1
Format profile : Layer 3
Mode : Joint stereo
Codec ID : 55
Codec ID/Hint : MP3
Duration : 2h 57mn
Bit rate mode : Constant
Bit rate : 128 Kbps
Channel(s) : 2 channels
Sampling rate : 48.0 KHz
Compression mode : Lossy
Stream size : 163 MiB (12%)
Alignment : Aligned on interleaves
Interleave, duration : 40 ms (1.00 video frame)
Interleave, preload duration : 504 ms