Télécharger J'ai envie de toi – Twilight Love 2 French

Qualité DVDRiP | FRENCH

J'ai envie de toi - Twilight Love 2

J'ai envie de toi - Twilight Love 2

J'ai envie de toi - Twilight Love 2

Origine du film : Espagnol
Réalisateur : Fernando González Molina
Acteurs : Mario Casas, Clara Lago, María Valverde
Genre : Romance, Drame
Durée : 2h 4min
Année de production : 2011
Titre Original : Tengo ganas de ti
Note spectateurs : J'ai envie de toi - Twilight Love 2 4,3/5 (116)

J'ai envie de toi - Twilight Love 2

Hugo et Babi sont deux êtres que tout oppose : ténébreux, rebelle, violent, « H » est un jeune homme sans attaches errant au gré de ses envies sur sa moto. « B » a grandi dans un foyer plein d’amour, de chaleur, protégée de toutes formes de violences. Alors qu’ils se rencontrent de manière improbable, les deux jeunes vont tomber amoureux : leur quotidien va en être transformé à jamais… 28974″ style= »display:inline; »>

J'ai envie de toi - Twilight Love 2

Qualité : DVDRiP
Format : XviD
Langue : Français
Taille totale : 1400 Mo

J'ai envie de toi - Twilight Love 2

Tengo.Ganas.De.Ti.2012.FRENCH.DVDRiP.XViD-STVFRV (1400 Mo)

1fichier
Télécharger

Uptobox
Télécharger

Free
Télécharger

Uploaded
Télécharger

Rapidgator
Télécharger

TurboBit
Télécharger

NFO :

Afficher / Masquer le texte 06870cd3416013b26699f85eb77b6c28″ class= »text_spoiler » style= »display:none; »>General
Complete name : Tengo.Ganas.De.Ti.2012.FRENCH.DVDRiP.XViD-STVFRV.avi
Format : AVI
Format/Info : Audio Video Interleave
File size : 1.40 GiB
Duration : 2h 3mn
Overall bit rate : 1 621 Kbps
Writing application : VirtualDubMod 1.5.1.1a (build 1155/release)
Writing library : VirtualDubMod build 1155/release

Video
ID : 0
Format : MPEG-4 Visual
Format profile : Advanced [email protected]
Format settings, BVOP : 2
Format settings, QPel : No
Format settings, GMC : No warppoints
Format settings, Matrix : Default (H.263)
Codec ID : XVID
Codec ID/Hint : XviD
Duration : 2h 3mn
Bit rate : 1 483 Kbps
Width : 720 pixels
Height : 304 pixels
Display aspect ratio : 2.35:1
Frame rate : 23.976 fps
Color space : YUV
Chroma subsampling : 4:2:0
Bit depth : 8 bits
Scan type : Progressive
Compression mode : Lossy
Bits/(Pixel*Frame) : 0.283
Stream size : 1.28 GiB (92%)
Writing library : XviD 64

Audio
ID : 1
Format : MPEG Audio
Format version : Version 1
Format profile : Layer 3
Codec ID : 55
Codec ID/Hint : MP3
Duration : 2h 3mn
Bit rate mode : Constant
Bit rate : 128 Kbps
Channel(s) : 2 channels
Sampling rate : 48.0 KHz
Compression mode : Lossy
Stream size : 113 MiB (8%)
Alignment : Aligned on interleaves
Interleave, duration : 42 ms (1.00 video frame)
Interleave, preload duration : 480 ms

Jeux Gratuit
15354131_1854970838071206_1069261547_o.png