Telecharger J'ai épousé une ombre [DVDRiP] French

Qualité DVDRiP | FRENCH

J'ai épousé une ombre

J'ai épousé une ombre

J'ai épousé une ombre

Origine du film : Français
Réalisateur : Robin Davis
Acteurs : Nathalie Baye, Francis Huster, Richard Bohringer
Genre : Drame
Durée : 1h50min
Date de sortie : 16 février 1983
Année de production : 1982
Note spectateurs : J'ai épousé une ombre

; »>3,3/5 (89)

J'ai épousé une ombre

Hélène (Nathalie Baye) est abandonée par Franck (Richard Bohringer), alors qu’elle est enceinte de huit mois. Elle décide alors de rejoindre le sud et part en train, où elle rencontre un couple, Bertrand et Patricia, cette dernière lui ressemblant étrangement. Survient alors un accident de train où le couple meurt. Hélène prend alors la place de Patricia dans la belle famille de cette dernière, sans le dire.
63778″ style= »display:inline; »>

J'ai épousé une ombre

Qualité : DVDRiP
Format : XviD
Langue : Français

J'ai épousé une ombre

( 1370 Mo)

Uptobox
Télécharger

Uplea
Télécharger

1fichier
Télécharger

Uploaded
Télécharger

Rapidgator
Télécharger

TurboBit
Télécharger

Mega
Télécharger

NFO :

Afficher / Masquer le texte 9e3eb617a219e3d27f56e3450c3699cd » class= »text_spoiler » style= »display:none; »>Format : AVI
Format/Info : Audio Video Interleave
File size : 1.37 GiB
Duration : 1h 44mn
Overall bit rate : 1 874 Kbps
Writing application : transcode-1.1.5

Video
ID : 0
Format : MPEG-4 Visual
Format profile : Advanced [email protected]
Format settings, BVOP : 1
Format settings, QPel : No
Format settings, GMC : No warppoints
Format settings, Matrix : Default (H.263)
Codec ID : XVID
Codec ID/Hint : XviD
Duration : 1h 44mn
Bit rate : 1 736 Kbps
Width : 784 pixels
Height : 528 pixels
Display aspect ratio : 3:2
Frame rate : 25.000 fps
Color space : YUV
Chroma subsampling : 4:2:0
Bit depth : 8 bits
Scan type : Progressive
Compression mode : Lossy
Bits/(Pixel*Frame) : 0.168
Stream size : 1.27 GiB (93%)
Writing library : XviD 1.2.1 (UTC 2008-12-04)

Audio
ID : 1
Format : MPEG Audio
Format version : Version 1
Format profile : Layer 3
Mode : Joint stereo
Mode extension : MS Stereo
Codec ID : 55
Codec ID/Hint : MP3
Duration : 1h 44mn
Bit rate mode : Constant
Bit rate : 128 Kbps
Channel(s) : 2 channels
Sampling rate : 48.0 KHz
Compression mode : Lossy
Stream size : 95.6 MiB (7%)
Alignment : Split accross interleaves
Interleave, duration : 40 ms (1.00 video frame)
Writing library : LAME3.98.2

Jeux Gratuit
15354131_1854970838071206_1069261547_o.png