Télécharger Jamais de la vie French

Qualité DVDRiP | FRENCH

Jamais de la vie

Jamais de la vie

Origine du film : Français
Réalisateur : Pierre Jolivet
Acteurs : Olivier Gourmet, Valérie Bonneton, Marc Zinga
Genre : Policier
Durée : 1h35min
Date de sortie : 8 avril 2015
Année de production : 2014
Distribué par : Ad Vitam
Note presse : Jamais de la vie 3,6/5
Note spectateurs : Jamais de la vie 3,1/5 (368)
Bande annonce :

f72ef686b48ba4283a2230613ee3110e

19551493″>Cliquez-ici pour voir la bande annonce f72ef686b48ba4283a2230613ee3110e »> 19551493

f72ef686b48ba4283a2230613ee3110e

Jamais de la vie

Franck, 52 ans, est gardien de nuit dans un centre commercial de banlieue. Il y a dix ans, il était ouvrier spécialisé et délégué syndical, toujours sur le pont, toujours prêt au combat. Aujourd’hui il est le spectateur résigné de sa vie, et il s’ennuie. Une nuit, il voit un 4×4 qui rôde sur le parking, et sent que quelque chose se prépare… La curiosité le sort de son indifférence et il décide d’intervenir. Une occasion pour lui de reprendre sa vie en main…
97396″ style= »display:inline; »>

Jamais de la vie

Format : XviD

Jamais de la vie

Jamais.De.La.Vie.2015.FRENCH.DVDRip.XviD.AC3.Mystic

(1000 Mo)

Uptobox
Télécharger

Uplea
Télécharger

1fichier
Télécharger

Uploaded
Télécharger

Rapidgator
Télécharger

TurboBit
Télécharger

NFO

Afficher / Masquer le texte f6dd8fccc69186301e8b98dd0253074a » class= »text_spoiler » style= »display:none; »>Analyse du fichier :

General
Complete name : C:UsersVideosEncodeJamais.De.La.Vie.2015.FRENCH.DVDRip.Mystic.Zone-telechargement.com.avi
Format : AVI
Format/Info : Audio Video Interleave
Format profile : OpenDML
File size : 1.05 GiB
Duration : 1h 31mn
Overall bit rate : 1 650 Kbps
Writing application : Lavf55.19.104

Video
ID : 0
Format : xvid
Codec ID : xvid
Duration : 1h 31mn
Bit rate : 125 Kbps
Width : 720 pixels
Height : 294 pixels
Display aspect ratio : 2.40:1
Frame rate : 25.000 fps
Bits/(Pixel*Frame) : 0.024
Stream size : 81.3 MiB (8%)

Audio
ID : 1
Format : AC-3
Format/Info : Audio Coding 3
Mode extension : CM (complete main)
Codec ID : 2000
Duration : 1h 31mn
Bit rate mode : Constant
Bit rate : 256 Kbps
Channel(s) : 2 channels
Channel positions : Front: L R
Sampling rate : 48.0 KHz
Bit depth : 16 bits
Compression mode : Lossy
Stream size : 3.64 MiB (0%)
Alignment : Aligned on interleaves
Interleave, duration : 120 ms (3.00 video frames)