Telecharger Jarhead 2 [BLURAY 720p] French

(TRUEFRENCH = Vraie voix française)

BLURAY 720p | TRUEFRENCH (VFI)

Jarhead 2

Jarhead 2

Jarhead 2

Origine du film : Américain
Réalisateur : Don Michael Paul
Acteurs : Josh Kelly, Stephen Lang, Esai Morales
Genre : Action, Guerre
Durée : 1h42min
Année de production : 2014
Titre Original : Jarhead 2: Field of Fire
Note spectateurs : Jarhead 2

; »>2,8/5 (7)
Bande annonce :

6d6e9b58803d6e759189d9a0cb6c529c

19546584″>Cliquez-ici pour voir la bande annonce 6d6e9b58803d6e759189d9a0cb6c529c »> 19546584

6d6e9b58803d6e759189d9a0cb6c529c

Jarhead 2

Le courage et le dévouement d’un jeune Marine sont mis à rude épreuve quand il est amené à commander son escouade lors d’une mission hautement stratégique en Afghanistan.
57958″ style= »display:inline; »>

Jarhead 2

Qualité : BLURAY 720p
Format : MKV
Langue : Français
Sous-titre : Français
Découpé avec : Winrar
Nombre de fichiers : 4 Fichiers
Taille des fichiers : 1000 Mo + 647 Mo

Jarhead 2

[4 Liens Interchangeables : 3 x 1000 Mo + 1 x 647 Mo]

Jarhead 2 Field of Fire 2014 FRENCH UNRATED 720p BluRay AC3 x264-CNF30 ( 3647 Mo)

Uptobox
Télécharger

Uplea
Télécharger

1fichier
Télécharger

Uploaded
Télécharger

Rapidgator
Télécharger

TurboBit
Télécharger

[1 Lien PREMIUM : 1 x 3.56 GB]

Uptobox
Télécharger

Uplea
Télécharger

1fichier
Télécharger

Uploaded
Télécharger

Rapidgator
Télécharger

TurboBit
Télécharger

NFO :

Afficher / Masquer le texte b01505f8c4b8da2f01ed79707f18b529″ class= »text_spoiler » style= »display:none; »>Format : Matroska
Format version : Version 4 / Version 2
File size : 3.56 GiB
Duration : 1h 42mn
Overall bit rate : 4 975 Kbps
Encoded date : UTC 2014-09-02 02:20:10
Writing application : mkvmerge v6.7.0 (‘Back to the Ground’) 64bit built on Jan 8 2014 15:10:52
Writing library : libebml v1.3.0 + libmatroska v1.4.1

Video
ID : 1
Format : AVC
Format/Info : Advanced Video Codec
Format profile : [email protected]
Format settings, CABAC : Yes
Format settings, ReFrames : 5 frames
Codec ID : V_MPEG4/ISO/AVC
Duration : 1h 42mn
Bit rate : 4 590 Kbps
Width : 1 280 pixels
Height : 536 pixels
Display aspect ratio : 2.40:1
Frame rate : 23.976 fps
Color space : YUV
Chroma subsampling : 4:2:0
Bit depth : 8 bits
Scan type : Progressive
Bits/(Pixel*Frame) : 0.279
Stream size : 3.22 GiB (90%)
Writing library : x264 core 142 r2431 ac76440
Encoding settings : cabac=1 / ref=5 / deblock=1:0:0 / analyse=0x3:0x133 / me=umh / subme=7 / psy=1 / psy_rd=1.00:0.00 / mixed_ref=1 / me_range=16 / chroma_me=1 / trellis=1 / 8x8dct=1 / cqm=0 / deadzone=21,11 / fast_pskip=0 / chroma_qp_offset=-2 / threads=18 / lookahead_threads=3 / sliced_threads=0 / nr=0 / decimate=1 / interlaced=0 / bluray_compat=0 / constrained_intra=0 / bframes=3 / b_pyramid=2 / b_adapt=1 / b_bias=0 / direct=1 / weightb=1 / open_gop=0 / weightp=2 / keyint=250 / keyint_min=23 / scenecut=40 / intra_refresh=0 / rc_lookahead=40 / rc=2pass / mbtree=1 / bitrate=4590 / ratetol=1.0 / qcomp=0.60 / qpmin=0 / qpmax=69 / qpstep=4 / cplxblur=20.0 / qblur=0.5 / ip_ratio=1.40 / aq=1:1.00
Language : English
Default : Yes
Forced : No

Audio
ID : 2
Format : AC-3
Format/Info : Audio Coding 3
Mode extension : CM (complete main)
Format settings, Endianness : Big
Codec ID : A_AC3
Duration : 1h 42mn
Bit rate mode : Constant
Bit rate : 384 Kbps
Channel(s) : 6 channels
Channel positions : Front: L C R, Side: L R, LFE
Sampling rate : 48.0 KHz
Bit depth : 16 bits
Compression mode : Lossy
Stream size : 282 MiB (8%)
Title : French VFI
Language : French
Default : Yes
Forced : No

Text
ID : 3
Format : UTF-8
Codec ID : S_TEXT/UTF8
Codec ID/Info : UTF-8 Plain Text
Title : French Forced
Language : French
Default : Yes
Forced : Yes

Jeux Gratuit
15354131_1854970838071206_1069261547_o.png