Télécharger Jason Bourne : l'héritage French

Qualité BDRiP | FRENCH (VFQ)

Jason Bourne : l'héritage

Jason Bourne : l'héritage

Jason Bourne : l'héritage

Origine du film : Américain
Réalisateur : Tony Gilroy
Acteurs : Jeremy Renner, Rachel Weisz, Edward Norton
Genre : Espionnage, Action, Thriller
Durée : 2h 16min
Date de sortie : 19 septembre 2012
Année de production : 2012
Titre Original : The Bourne Legacy
Distribué par : Universal Pictures International France
Note presse : Jason Bourne : l'héritage 2,8/5
Note spectateurs : Jason Bourne : l'héritage 3/5 (3104)

Jason Bourne : l'héritage

On croyait tout connaître de l’histoire de Jason Bourne et de son passé d’agent tueur malgré lui. Mais l’essentiel restait à découvrir. Le programme Treadstone dont Jason était le cobaye n’était que la partie émergée d’une conspiration plus ténébreuse, ourdie par d’autres branches du gouvernement et mettant en jeu d’autres agences de renseignement, d’autres programmes militaires, d’autres laboratoires secrets…De Treadstone est né « Outcome », dont Aaron Cross est un des six agents. Sa finalité n’est plus de fabriquer des tueurs, mais des hommes capables d’assurer isolément des missions à haut risque. En dévoilant une partie de cette organisation, Jason laissait derrière lui un « héritage » explosif : compromis, les agents « Outcome » sont désormais promis à une liquidation brutale. Effacés à jamais pour que le « père » du programme, le Colonel Byer puisse poursuivre ses sinistres activités.Une gigantesque chasse à l’homme commence, et Cross, devenue sa première cible, n’a d’autre recours que de retrouver et gagner la confiance de la biochimiste d’ »Outcome », Marta Shearing, elle-même menacée de mort… 16666″ style= »display:inline; »>

Jason Bourne : l'héritage

Qualité : BDRiP
Format : AVI
Langue : Français

Jason Bourne : l'héritage

Cliquez ici pour télécharger en TRUEFRENCH

The.Bourne.Legacy.2012.FRENCH.BDRip.XviD-AYMO (1400 Mo, recommandé)

Uptobox
Télécharger

1fichier
Télécharger

Uploaded
Télécharger

Rapidgator
Télécharger

TurboBit
Télécharger

NFO

Afficher / Masquer le texte e61771b861475d32eca26ebf77bce21a » class= »text_spoiler » style= »display:none; »> The.Bourne.Legacy.2012.FRENCH.BDRip.XviD

Source : BR Zone 1
Resolution : 640*272
Format : XviD
Audio : MP3
Sous Titres : —
Rlz Date : 30.11.2012
DVD Street : **.11.2012
Note : —

www.imdb.com/title/tt1194173/

Enjoy ma poule !!!

The.Bourne.Legacy.2012.FRENCH.BRRip.REPACK.1CD.XviD-TPI (700 Mo, non recommandé pour 2h16min de film)

Uptobox
Télécharger

1fichier
Télécharger

Uploaded
Télécharger

Rapidgator
Télécharger

TurboBit
Télécharger

NFO

Afficher / Masquer le texte d408b5718b32460e5f974a419d067651″ class= »text_spoiler » style= »display:none; »>General
Complete name : The.Bourne.Legacy.2012.FRENCH.BRRip.REPACK.1CD.XviD-TPI.avi
Format : AVI
Format/Info : Audio Video Interleave
File size : 700 MiB
Duration : 2h 15mn
Overall bit rate : 725 Kbps
Writing application : VirtualDubMod 1.5.10.2 (build 2542/release)
Writing library : VirtualDubMod build 2542/release

Video
ID : 0
Format : MPEG-4 Visual
Format profile : Advanced [email protected]
Format settings, BVOP : 1
Format settings, QPel : No
Format settings, GMC : No warppoints
Format settings, Matrix : Default (H.263)
Muxing mode : Packed bitstream
Codec ID : XVID
Codec ID/Hint : XviD
Duration : 2h 15mn
Bit rate : 587 Kbps
Width : 640 pixels
Height : 272 pixels
Display aspect ratio : 2.35:1
Frame rate : 23.976 fps
Color space : YUV
Chroma subsampling : 4:2:0
Bit depth : 8 bits
Scan type : Progressive
Compression mode : Lossy
Bits/(Pixel*Frame) : 0.141
Stream size : 567 MiB (81%)
Writing library : XviD 64

Audio
ID : 1
Format : MPEG Audio
Format version : Version 1
Format profile : Layer 3
Mode : Joint stereo
Mode extension : MS Stereo
Codec ID : 55
Codec ID/Hint : MP3
Duration : 2h 15mn
Bit rate mode : Constant
Bit rate : 128 Kbps
Channel(s) : 2 channels
Sampling rate : 48.0 KHz
Compression mode : Lossy
Stream size : 124 MiB (18%)
Alignment : Aligned on interleaves
Interleave, duration : 42 ms (1.00 video frame)
Interleave, preload duration : 504 ms
Writing library : LAME3.99r
Encoding settings : -m j -V 4 -q 2 -lowpass 17 -b 128

The.Bourne.Legacy.2012.PROPER.FRENCH.BRRiP.XviD.AC3-AUTOPSiE (2100 Mo)

Uptobox
Télécharger

1fichier
Télécharger

Uploaded
Télécharger

Rapidgator
Télécharger

TurboBit
Télécharger

NFO

Afficher / Masquer le texte 5943bec979e999bf4d3c75cbd72c0828″ class= »text_spoiler » style= »display:none; »> ReLeaSe : BRRiP 2GB05 ██▓▓▀
▐▓▓█▌ BiT RaTe GloBaL : 2 172 Kbps ▐█▓▓▌
▓▓█▌ GeNRe : ESPIONNAGE/ACTION/THRILLER ▐█▓▓
▓▓█▌ LaNGue : FRENCH ▐█▓▓
▓▓█▌ FoRmaT : AVI ▐█▓▓
▓▓█▌ ReLeaSe DaTe : 30/11/2012 ▐█▓▓
▓▓█▌ EnCoDeR : iTACHi ▐█▓▓
▓▓█▌ Duree : 2H15 ▐█▓▓
▓▓█ SouRCe : 720p LOST █▓▓
▓▓█ █▓▓
▓▓█ █▓▓
▓▓█ ╠═════════════════════════════════════════════╣ █▓▓
▓▓█ ViDeo █▓▓
▓▓█ BiT RaTe : 1 715 Kbps █▓▓
▓▓█ CoDeC : XviD █▓▓
▓▓█ FRaMe RaTe : 23.976 fps █▓▓
▐▓▓▌ ReSoLuTioN : 720 x 304 ▐▓▓▌
▓▓▓ AsPeCT RaTiO : 2.35 ▓▓▓
░▒▒▒ ╠═════════════════════════════════════════════╣ ▒▒▒░
░░ ░ Audio ░ ░░
░▒ CoDeC : AC3 ▒░
░▒▒▓▌ SUB : FRENCH FORCED ▐▓▒▒░
▓▓█ █▓▓
▓▓█▌ BiT RaTE : 448 Kbps ▐█▓▓
▀▀▓██▌ Info : 6 canaux, 48Khz ▐██▓▀▀
▓▄▄ ▀█ ▄