Telecharger Jeanne d'Arc [BLURAY 720p] French

BLURAY 720p | TRUEFRENCH | DTS

Jeanne d'Arc

Jeanne d'Arc

Jeanne d'Arc

Origine du film : Français
Réalisateur : Luc Besson
Acteurs : Milla Jovovich, John Malkovich, Faye Dunaway
Genre : Drame, Historique
Durée : 2h40min
Date de sortie : 27 octobre 1999
Année de production : 1999
Titre Original : The Messenger: The Story of Joan of Arc
Distribué par : Gaumont Buena Vista International (GBVI)
Note presse : Jeanne d'Arc 3,7/5
Note spectateurs : Jeanne d'Arc 2,8/5 (6 895)
Bande annonce :

2088612693639532add0b509b0977829

18650351″>Cliquez-ici pour voir la bande annonce 2088612693639532add0b509b0977829″> 18650351

2088612693639532add0b509b0977829

Jeanne d'Arc

L'épopée de Jeanne qui assista, petite fille, au pillage de son village Domremy par l'armée anglaise. On la suit de sa jeunesse pieuse où des voix l'engagent à délivrer la France de la domination anglaise à sa victoire à Orleans, jusqu'à son procès final et sa mort sur le bûcher, le 30 mai 1431. Elle avait dix-neuf ans. 40000″ style= »display:inline; »>

Qualité : BLURAY 720p
Format : MKV
Langue : Français
Sous-titre : Français
Découpé avec : Winrar
Nombre de fichiers : 9 Fichiers
Taille des fichiers : 1000 Mo 135 Mo

[9 Liens Interchangeables : 8 x 1000 Mo 1 x 135 Mo]

Jeanne.D.Arc.1999.FRENCH.720p.BluRay.x264.DTS-HDP ( 8135 Mo)

1fichier
Télécharger

Uptobox
Télécharger

Free
Télécharger

Uploaded
Télécharger

Rapidgator
Télécharger

TurboBit
Télécharger

[1 Lien PREMIUM : 1 x 7.94 GB]

1fichier
Télécharger

Uptobox
Télécharger

TurboBit
Télécharger

[2 Liens PREMIUM]

Uploaded
Partie 1
Partie 2

NFO :

Afficher / Masquer le texte 4ac23b1898131c1be52e118ee5e1edc1″ class= »text_spoiler » style= »display:none; »>Complete name : Jeanne.D.arc 1999 FRENCH 720p bluRay x264 DTS-HDP.mkv
Format : Matroska
Format version : Version 1
File size : 7.94 GiB
Duration : 2h 38mn
Overall bit rate : 7 198 Kbps
Encoded date : UTC 2008-12-04 17:11:56
Writing application : mkvmerge v2.4.0 ('Fumbling Towards Ecstasy') built on Oct 11 2008 20:13:15
Writing library : libebml v0.7.7 libmatroska v0.8.1

Video
ID : 1
Format : AVC
Format/Info : Advanced Video Codec
Format profile : [email protected]
Format settings, CABAC : Yes
Format settings, ReFrames : 5 frames
Codec ID : V_MPEG4/ISO/AVC
Duration : 2h 38mn
Bit rate : 5 685 Kbps
Width : 1 280 pixels
Height : 544 pixels
Display aspect ratio : 2.35:1
Frame rate : 23.976 fps
Color space : YUV
Chroma subsampling : 4:2:0
Bit depth : 8 bits
Scan type : Progressive
Bits/(Pixel*Frame) : 0.341
Stream size : 6.12 GiB (77%)
Writing library : x264 core 65 r1046 71d34b4
Encoding settings : cabac=1 / ref=5 / deblock=1:0:0 / analyse=0x3:0x113 / me=umh / subme=7 / psy_rd=1.0:0.0 / mixed_ref=1 / me_range=16 / chroma_me=1 / trellis=1 / 8x8dct=1 / cqm=0 / deadzone=21,11 / chroma_qp_offset=-2 / threads=6 / nr=0 / decimate=1 / mbaff=0 / bframes=3 / b_pyramid=1 / b_adapt=1 / b_bias=0 / direct=1 / wpredb=1 / keyint=250 / keyint_min=25 / scenecut=40(pre) / rc=2pass / bitrate=5685 / ratetol=1.0 / qcomp=0.60 / qpmin=10 / qpmax=51 / qpstep=4 / cplxblur=20.0 / qblur=0.5 / ip_ratio=1.40 / pb_ratio=1.30 / aq=1:1.00
Language : English

Audio
ID : 2
Format : DTS
Format/Info : Digital Theater Systems
Codec ID : A_DTS
Duration : 2h 38mn
Bit rate mode : Constant
Bit rate : 1 510 Kbps
Channel(s) : 6 channels
Channel positions : Front: L C R, Side: L R, LFE
Sampling rate : 48.0 KHz
Bit depth : 24 bits
Compression mode : Lossy
Stream size : 1.67 GiB (21%)
Title : French DTS 5.1
Language : French

Jeux Gratuit
15354131_1854970838071206_1069261547_o.png