Telecharger Jessabelle [BLURAY 720p] French

Qualité BLURAY 720p | FRENCH

Origine du film : Américain
Réalisateur : Kevin Greutert
Acteurs : Sarah Snook, Mark Webber, David Andrews
Genre : Epouvante-horreur, Thriller
Durée : 1h30min
Année de production : 2014
Note spectateurs :

; »>2,8/5 (31)
Bande annonce :

8dce981947c26db5ba1875a0e28d8630

19545071″>Cliquez-ici pour voir la bande annonce 8dce981947c26db5ba1875a0e28d8630″> 19545071

8dce981947c26db5ba1875a0e28d8630

Une jeune femme du nom de Jessabelle retourne en Louisiane dans la maison de son père après qu'un accident l'ait privée de l'usage de ses jambes. Des choses étranges se produisent. Elle va devoir faire face à un fantôme en colère…
71847″ style= »display:inline; »>

Jessabelle

Format : MKV
Découpé avec : Winrar

Jessabelle

Jessabelle.2014.FRENCH.720p.BluRay.x264-CYR

(3600 Mo)

Remarque: Son MP3, en attendant une meilleure release

[Liens Interchangeables entre hébergeurs: 3 x 1000 Mo + 1 x 585 Mo]

Uptobox
Télécharger

Uplea
Télécharger

1fichier
Télécharger

Uploaded
Télécharger

Rapidgator
Télécharger

TurboBit
Télécharger

[1 Lien PREMIUM : 1 x 3.50 GB]

Uptobox
Télécharger

Uplea
Télécharger

1fichier
Télécharger

Uploaded
Télécharger

Rapidgator
Télécharger

TurboBit
Télécharger

NFO :

Afficher / Masquer le texte ec1035c940e988414840070bab1f0efd » class= »text_spoiler » style= »display:none; »>General
Format : Matroska
Format version : Version 4 / Version 2
File size : 3.50 GiB
Duration : 1h 30mn
Overall bit rate mode : Variable
Overall bit rate : 5 563 Kbps
Encoded date : UTC 2015-01-13 16:51:37
Writing application : mkvmerge v7.4.0 (‘Circles’) 64bit built on Dec 12 2014 12:49:36
Writing library : libebml v1.3.0 + libmatroska v1.4.1
_STATISTICS_WRITING_APP : mkvmerge v7.4.0 (‘Circles’) 64bit built on Dec 12 2014 12:49:36
_STATISTICS_WRITING_DATE_UTC : 2015-01-13 16:51:37
_STATISTICS_TAGS : BPS DURATION NUMBER_OF_FRAMES NUMBER_OF_BYTES
DURATION : 01:30:07.008000000
NUMBER_OF_FRAMES : 225292
NUMBER_OF_BYTES : 86511840

Video
ID : 1
Format : AVC
Format/Info : Advanced Video Codec
Format profile : [email protected]
Format settings, CABAC : Yes
Format settings, ReFrames : 9 frames
Codec ID : V_MPEG4/ISO/AVC
Duration : 1h 30mn
Bit rate : 5 437 Kbps
Width : 1 280 pixels
Height : 720 pixels
Display aspect ratio : 16:9
Frame rate mode : Constant
Frame rate : 23.976 fps
Color space : YUV
Chroma subsampling : 4:2:0
Bit depth : 8 bits
Scan type : Progressive
Bits/(Pixel*Frame) : 0.246
Stream size : 3.35 GiB (96%)
Writing library : x264 core 144 r2525 40bb568
Encoding settings : cabac=1 / ref=9 / deblock=1:-2:-3 / analyse=0x3:0x113 / me=umh / subme=10 / psy=1 / psy_rd=1.00:0.15 / mixed_ref=1 / me_range=48 / chroma_me=1 / trellis=2 / 8x8dct=1 / cqm=0 / deadzone=21,11 / fast_pskip=1 / chroma_qp_offset=-3 / threads=12 / lookahead_threads=2 / sliced_threads=0 / nr=0 / decimate=1 / interlaced=0 / bluray_compat=0 / constrained_intra=0 / bframes=8 / b_pyramid=2 / b_adapt=2 / b_bias=0 / direct=1 / weightb=1 / open_gop=0 / weightp=2 / keyint=240 / keyint_min=23 / scenecut=40 / intra_refresh=0 / rc_lookahead=40 / rc=2pass / mbtree=1 / bitrate=5437 / ratetol=1.0 / qcomp=0.60 / qpmin=0 / qpmax=69 / qpstep=4 / cplxblur=20.0 / qblur=0.5 / vbv_maxrate=40000 / vbv_bufsize=48000 / nal_hrd=none / filler=0 / ip_ratio=1.40 / aq=1:1.00
Default : Yes
Forced : No
Color primaries : BT.709
Transfer characteristics : BT.709
Matrix coefficients : BT.709

Audio
ID : 2
Format : MPEG Audio
Format version : Version 1
Format profile : Layer 3
Mode : Joint stereo
Mode extension : MS Stereo
Codec ID : A_MPEG/L3
Codec ID/Hint : MP3
Duration : 1h 30mn
Bit rate mode : Variable
Bit rate : 128 Kbps
Channel(s) : 2 channels
Sampling rate : 48.0 KHz
Compression mode : Lossy
Stream size : 82.5 MiB (2%)
Writing library : LAME3.97
Encoding settings : -m j -V 4 -q 2 -lowpass 17 -b 128
Language : French
Default : Yes
Forced : No

Jeux Gratuit
15354131_1854970838071206_1069261547_o.png