Telecharger Jet Lag [BLURAY 720p] French

(TRUEFRENCH = Vraie voix française)

Qualité BLURAY 720p | TRUEFRENCH | son DTS

Jet Lag

Jet Lag

Origine du film : Américain
Réalisateur : Ken Scott
Acteurs : Vince Vaughn, Dave Franco, Tom Wilkinson
Genre : Comédie
Durée : 1h32min
Date de sortie : 20 mai 2015
Année de production : 2015
Titre Original : Unfinished Business
Distribué par : Twentieth Century Fox France
Note spectateurs : Jet Lag 2,2/5 (180)
Bande annonce :

5b60000f52f7d5ef4b8827c88f61fbae

19551271″>Cliquez-ici pour voir la bande annonce 5b60000f52f7d5ef4b8827c88f61fbae »> 19551271

5b60000f52f7d5ef4b8827c88f61fbae

Jet Lag

Alors que le directeur d’une petite entreprise est sur le point de signer avec ses deux associés un accord en Europe qui changera la face de sa société, le voyage tournera au désastre…
103049″ style= »display:inline; »>

Jet Lag

Format : MKV

Jet Lag

Unfinished.Business.2015.TRUEFRENCH.720p.BluRay.x264-Goatlove

(4470 Mo)

[Liens Interchangeables entre hébergeurs: 4x 1000 Mo + 1x 470 Mo]

Uptobox
Télécharger

Uplea
Télécharger

1fichier
Télécharger

Uploaded
Télécharger

Rapidgator
Télécharger

TurboBit
Télécharger

1 Lien Premium – 4.4 Go

Uptobox Premium
Télécharger

Uplea Premium
Télécharger

1fichier Premium
Télécharger

Uploaded Premium
Télécharger

TurboBit Premium
Télécharger

NFO :

Afficher / Masquer le texte 2a15d5721f4c4f3c4419974b34bc87a1″ class= »text_spoiler » style= »display:none; »>General
Complete name : unfinished.business.2015.truefrench.720p.bluray.x264-goatlove.mkv
Format : Matroska
Format version : Version 2
File size : 4.37 GiB
Duration : 1h 30mn
Overall bit rate : 6 873 Kbps
Writing application : mkvmerge v6.6.0 (‘The Edge Of The In Between’) built on Dec 1 2013 17:55:00
Writing library : libebml v1.3.0 + libmatroska v1.4.1

Video
ID : 1
Format : AVC
Format/Info : Advanced Video Codec
Format profile : [email protected]
Format settings, CABAC : Yes
Format settings, ReFrames : 5 frames
Codec ID : V_MPEG4/ISO/AVC
Duration : 1h 30mn
Bit rate : 6 108 Kbps
Width : 1 280 pixels
Height : 536 pixels
Display aspect ratio : 2.40:1
Frame rate mode : Constant
Frame rate : 23.976 fps
Color space : YUV
Chroma subsampling : 4:2:0
Bit depth : 8 bits
Scan type : Progressive
Bits/(Pixel*Frame) : 0.371
Stream size : 3.79 GiB (87%)
Writing library : x264 core 148 r2638 7599210
Encoding settings : cabac=1 / ref=5 / deblock=1:0:0 / analyse=0x3:0x113 / me=umh / subme=8 / psy=1 / psy_rd=1.00:0.00 / mixed_ref=1 / me_range=16 / chroma_me=1 / trellis=1 / 8x8dct=1 / cqm=0 / deadzone=21,11 / fast_pskip=1 / chroma_qp_offset=-2 / threads=12 / lookahead_threads=2 / sliced_threads=0 / nr=0 / decimate=1 / interlaced=0 / bluray_compat=0 / constrained_intra=0 / bframes=3 / b_pyramid=2 / b_adapt=2 / b_bias=0 / direct=3 / weightb=1 / open_gop=0 / weightp=2 / keyint=250 / keyint_min=23 / scenecut=40 / intra_refresh=0 / rc_lookahead=50 / rc=2pass / mbtree=1 / bitrate=6108 / ratetol=1.0 / qcomp=0.60 / qpmin=0 / qpmax=69 / qpstep=4 / cplxblur=20.0 / qblur=0.5 / ip_ratio=1.40 / aq=1:1.00
Language : English
Default : Yes
Forced : No

Audio
ID : 2
Format : DTS
Format/Info : Digital Theater Systems
Mode : 16
Format settings, Endianness : Big
Codec ID : A_DTS
Duration : 1h 30mn
Bit rate mode : Constant
Bit rate : 768 Kbps
Channel(s) : 6 channels
Channel positions : Front: L C R, Side: L R, LFE
Sampling rate : 48.0 KHz
Bit depth : 24 bits
Compression mode : Lossy
Stream size : 500 MiB (11%)
Title : French
Language : French
Default : Yes
Forced : No

Text
ID : 3
Format : UTF-8
Codec ID : S_TEXT/UTF8
Codec ID/Info : UTF-8 Plain Text
Title : French Forced
Language : frf
Default : Yes
Forced : Yes

Menu
00:00:00.000 : en:00:00:00.000
00:03:12.943 : en:00:03:12.943
00:06:55.624 : en:00:06:55.624
00:10:31.297 : en:00:10:31.297
00:14:11.726 : en:00:14:11.726
00:19:54.985 : en:00:19:54.985
00:22:55.541 : en:00:22:55.541
00:27:27.729 : en:00:27:27.729
00:31:29.638 : en:00:31:29.638
00:34:04.209 : en:00:34:04.209
00:37:12.188 : en:00:37:12.188
00:41:03.628 : en:00:41:03.628
00:44:28.291 : en:00:44:28.291
00:47:20.296 : en:00:47:20.296
00:50:48.712 : en:00:50:48.712
00:55:08.096 : en:00:55:08.096
00:58:40.892 : en:00:58:40.892
01:02:32.958 : en:01:02:32.958
01:05:48.987 : en:01:05:48.987
01:08:02.078 : en:01:08:02.078
01:11:47.011 : en:01:11:47.011
01:15:24.854 : en:01:15:24.854
01:20:47.259 : en:01:20:47.259
01:24:25.060 : en:01:24:25.060

Jeux Gratuit
15354131_1854970838071206_1069261547_o.png