Telecharger Judge Dredd [BLURAY 720p] French

(TRUEFRENCH = Vraie voix française)

BLURAY 720p | MULTiLANGUES (Avec TRUEFRENCH)

Judge Dredd

Judge Dredd

Judge Dredd

Origine du film : Américain
Réalisateur : Danny Cannon
Acteurs : Sylvester Stallone, Armand Assante, Max von Sydow
Genre : Science fiction, Action
Durée : 1h35min
Date de sortie : 23 août 1995
Année de production : 1995
Distribué par : UFD
Note presse : Judge Dredd 1,6/5
Note spectateurs : Judge Dredd

; »>2,2/5 (3 362)
Bande annonce :

83731fa0af321d6b958e1a87f60db733

19410860″>Cliquez-ici pour voir la bande annonce 83731fa0af321d6b958e1a87f60db733″> 19410860

83731fa0af321d6b958e1a87f60db733

Judge Dredd

Nous somme en 2139, la planète a été ravagée par de terribles guerres atomiques. La vie subsiste dans des cités tentaculaires dont la capitale et Mega City One, megalopole construite sur plusieurs niveaux. Pour assurer l'ordre, des officiers froids et terriblement efficaces crées lors d'une expérience sur l'ADN. L'un d'entre eux, le juge Dredd a un double, Rico, clone né de la même chaine d'ADN. 46176″ style= »display:inline; »>

Qualité : BLURAY 720p
Format : MKV
Sous-titre : Multi
Découpé avec : Winrar
Nombre de fichiers : 5 Fichiers
Taille des fichiers : 1000 Mo 912 Mo

[Liens Interchangeables]

Judge.Dredd.1995.MULTI.720p.BluRay.x264.AC3-LCDS ( 3918 Mo)

1fichier
Télécharger

Uptobox
Télécharger

Free
Télécharger

Uploaded
Télécharger

Rapidgator
Télécharger

TurboBit
Télécharger

[ 1 Lien Premium – 3,9 Go ]

1fichier
Télécharger

Uptobox
Télécharger

Free
Télécharger

Uploaded
Télécharger

TurboBit
Upload en cour…

NFO :

Afficher / Masquer le texte 37cb60c8ed310855e57e61a4f98f1ad0″ class= »text_spoiler » style= »display:none; »>Format :MKV
Langue :VOA VFQ VFF
Sous-titre :Anglais Français
Codec vidéo :AVC (H.264) – 4614 Kbps
Codec audio :VOA-VFF AC3 5.1 448 Kbps / VFQ AC3 2.0 192 Kbps
Taille totale :3.83 Go

General
Complete name : Judge.Dredd.1995.MULTI.720p.BluRay.x264.AC3-LCDS.mkv
Format : Matroska
Format version : Version 4 / Version 2
File size : 3.83 GiB
Duration : 1h 36mn
Overall bit rate : 5 695 Kbps
Encoded date : UTC 2014-02-04 21:56:26
Writing application : mkvmerge v6.7.0 ('Back to the Ground') 64bit built on Jan 8 2014 15:10:52
Writing library : libebml v1.3.0 libmatroska v1.4.1

Video
ID : 1
Format : AVC
Format/Info : Advanced Video Codec
Format profile : [email protected]
Format settings, CABAC : Yes
Format settings, ReFrames : 5 frames
Codec ID : V_MPEG4/ISO/AVC
Duration : 1h 36mn
Bit rate : 4 614 Kbps
Width : 1 280 pixels
Height : 544 pixels
Display aspect ratio : 2.35:1
Frame rate mode : Constant
Frame rate : 23.976 fps
Color space : YUV
Chroma subsampling : 4:2:0
Bit depth : 8 bits
Scan type : Progressive
Bits/(Pixel*Frame) : 0.276
Stream size : 3.02 GiB (79%)
Title : Video
Writing library : x264 core 125 r2200 999b753
Encoding settings : cabac=1 / ref=5 / deblock=1:-3:-3 / analyse=0x3:0x113 / me=umh / subme=9 / psy=1 / psy_rd=0.50:0.00 / mixed_ref=1 / me_range=18 / chroma_me=1 / trellis=1 / 8x8dct=1 / cqm=0 / deadzone=21,11 / fast_pskip=0 / chroma_qp_offset=-2 / threads=3 / lookahead_threads=1 / sliced_threads=0 / nr=0 / decimate=0 / interlaced=0 / bluray_compat=0 / constrained_intra=0 / bframes=3 / b_pyramid=2 / b_adapt=2 / b_bias=0 / direct=1 / weightb=1 / open_gop=0 / weightp=2 / keyint=240 / keyint_min=23 / scenecut=40 / intra_refresh=0 / rc_lookahead=40 / rc=2pass / mbtree=1 / bitrate=4614 / ratetol=1.0 / qcomp=0.60 / qpmin=0 / qpmax=69 / qpstep=4 / cplxblur=20.0 / qblur=0.5 / ip_ratio=1.40 / aq=1:1.00
Default : Yes
Forced : No

Audio #1
ID : 2
Format : AC-3
Format/Info : Audio Coding 3
Mode extension : CM (complete main)
Format settings, Endianness : Big
Codec ID : A_AC3
Duration : 1h 36mn
Bit rate mode : Constant
Bit rate : 448 Kbps
Channel(s) : 6 channels
Channel positions : Front: L C R, Side: L R, LFE
Sampling rate : 48.0 KHz
Bit depth : 16 bits
Compression mode : Lossy
Stream size : 308 MiB (8%)
Title : VOA 5.1
Language : English
Default : No
Forced : No

Audio #2
ID : 3
Format : AC-3
Format/Info : Audio Coding 3
Mode extension : CM (complete main)
Format settings, Endianness : Big
Codec ID : A_AC3
Duration : 1h 36mn
Bit rate mode : Constant
Bit rate : 192 Kbps
Channel(s) : 2 channels
Channel positions : Front: L R
Sampling rate : 48.0 KHz
Bit depth : 16 bits
Compression mode : Lossy
Stream size : 132 MiB (3%)
Title : VFQ 2.0
Language : French
Default : Yes
Forced : No

Audio #3
ID : 4
Format : AC-3
Format/Info : Audio Coding 3
Mode extension : CM (complete main)
Format settings, Endianness : Big
Codec ID : A_AC3
Duration : 1h 36mn
Bit rate mode : Constant
Bit rate : 448 Kbps
Channel(s) : 6 channels
Channel positions : Front: L C R, Side: L R, LFE
Sampling rate : 48.0 KHz
Bit depth : 16 bits
Compression mode : Lossy
Stream size : 308 MiB (8%)
Title : VFF 5.1
Language : French
Default : No
Forced : No

Text #1
ID : 5
Format : UTF-8
Codec ID : S_TEXT/UTF8
Codec ID/Info : UTF-8 Plain Text
Title : Anglais
Language : English
Default : No
Forced : No

Text #2
ID : 6
Format : UTF-8
Codec ID : S_TEXT/UTF8
Codec ID/Info : UTF-8 Plain Text
Title : Francais
Language : French
Default : No
Forced : No