Télécharger Jupiter : Le destin de l'Univers Blu-Ray 3D

Qualité BLURAY 3D | MULTiLANGUES (VFQ) | SBS

Jupiter : Le destin de l'Univers

Jupiter : Le destin de l'Univers

Origine du film : Américain
Réalisateur : Andy Wachowski
Acteurs : Channing Tatum, Mila Kunis, Sean Bean
Genre : Science fiction, Aventure, Action
Durée : 2h7min
Date de sortie : 4 février 2015
Année de production : 2015
Titre Original : Jupiter Ascending
Distribué par : Warner Bros. France
Note presse : Jupiter : Le destin de l'Univers 3,0/5
Note spectateurs : Jupiter : Le destin de l'Univers 2,8/5 (3 504)
Bande annonce :

ee087901094976d2b9b3d4e0341409a1

19550075″>Cliquez-ici pour voir la bande annonce ee087901094976d2b9b3d4e0341409a1″> 19550075

ee087901094976d2b9b3d4e0341409a1

Jupiter : Le destin de l'Univers

Née sous un ciel étoilé, Jupiter Jones est promise à un destin hors du commun. Devenue adulte, elle a la tête dans les étoiles, mais enchaîne les coups durs et n’a d’autre perspective que de gagner sa vie en nettoyant des toilettes. Ce n’est que lorsque Caine, ancien chasseur militaire génétiquement modifié, débarque sur Terre pour retrouver sa trace que Jupiter commence à entrevoir le destin qui l’attend depuis toujours : grâce à son empreinte génétique, elle doit bénéficier d’un héritage extraordinaire qui pourrait bien bouleverser l’équilibre du cosmos…
83835″ style= »display:inline; »>

Jupiter : Le destin de l'Univers

Format : MKV
Découpé avec : Winrar

Jupiter : Le destin de l'Univers

Jupiter.Ascending.2015.3D.SBS.MULTi.1080p.BluRay.TRUEHD.x264-Poney

(18550 Mo)

[Liens Interchangeables entre hébergeurs: 18x 1000 Mo + 1x 546 Mo]

Uptobox
Télécharger

Uplea
Télécharger

1fichier
Télécharger

Uploaded
Télécharger

Rapidgator
Télécharger

TurboBit
Télécharger

[ 1 lien Premium – 18,5 Go ]

Uptobox
Télécharger

Uplea
Télécharger

1fichier
Télécharger

TurboBit
Télécharger

[ 4 liens Premium ]

Uploaded
Télécharger

NFO :

Afficher / Masquer le texte 6b79f94615052c06628b8847998db545″ class= »text_spoiler » style= »display:none; »>General
Unique ID : 221542510418599735991541184933300463241 (0xA6AB89150520D860805BC5818BA6E689)
Complete name : Jupiter.Ascending.2015.3D.SBS.MULTi.1080p.BluRay.TRUEHD.x264-Poney.mkv
Format : Matroska
Format version : Version 4 / Version 2
File size : 18.1 GiB
Duration : 2h 7mn
Overall bit rate mode : Variable
Overall bit rate : 20.3 Mbps
Encoded date : UTC 2015-05-07 07:17:49
Writing application : mkvmerge v7.8.0 (‘River Man’) 64bit built on Mar 27 2015 16:31:37
Writing library : libebml v1.3.1 + libmatroska v1.4.2
DURATION : 02:06:26.328000000
NUMBER_OF_FRAMES : 33
NUMBER_OF_BYTES : 701
_STATISTICS_WRITING_APP : mkvmerge v7.8.0 (‘River Man’) 64bit built on Mar 27 2015 16:31:37
_STATISTICS_WRITING_DATE_UTC : 2015-05-07 07:17:49
_STATISTICS_TAGS : BPS DURATION NUMBER_OF_FRAMES NUMBER_OF_BYTES

Video
ID : 1
Format : AVC
Format/Info : Advanced Video Codec
Format profile : [email protected]
MultiView_Count : 2
MultiView_Layout : Side by Side (left eye first)
Format settings, CABAC : Yes
Format settings, ReFrames : 4 frames
Codec ID : V_MPEG4/ISO/AVC
Duration : 2h 7mn
Width : 1 920 pixels
Height : 1 080 pixels
Display aspect ratio : 16:9
Frame rate mode : Constant
Frame rate : 23.976 fps
Color space : YUV
Chroma subsampling : 4:2:0
Bit depth : 8 bits
Scan type : Progressive
Writing library : x264 core 142 r2431+42 c69a006 tMod [[email protected] X86_64]
Encoding settings : cabac=1 / ref=4 / deblock=1:-3:-3 / analyse=0x3:0x133 / me=umh / subme=10 / psy=1 / fade_compensate=0.00 / psy_rd=1.00:0.00 / mixed_ref=1 / me_range=24 / chroma_me=1 / trellis=2 / 8x8dct=1 / cqm=0 / deadzone=21,11 / fast_pskip=0 / chroma_qp_offset=-2 / threads=24 / lookahead_threads=4 / sliced_threads=0 / nr=0 / decimate=0 / interlaced=0 / bluray_compat=0 / constrained_intra=0 / fgo=0 / bframes=8 / b_pyramid=2 / b_adapt=2 / b_bias=0 / direct=3 / weightb=1 / open_gop=0 / weightp=2 / keyint=250 / keyint_min=23 / scenecut=40 / intra_refresh=0 / rc=crf / mbtree=0 / crf=16.5000 / qcomp=0.65 / qpmin=0:0:0 / qpmax=69:69:69 / qpstep=4 / frame-packing=3 / ip_ratio=1.40 / pb_ratio=1.20 / aq=3:0.80 / aq-sensitivity=10.00 / aq-factor=1.00:1.00:1.00 / aq2=0 / aq3=0
Language : English
Default : Yes
Forced : No
DURATION : 02:07:31.728000000
NUMBER_OF_FRAMES : 183458
NUMBER_OF_BYTES : 12241654814
_STATISTICS_WRITING_APP : mkvmerge v7.8.0 (‘River Man’) 64bit built on Mar 27 2015 16:31:37
_STATISTICS_WRITING_DATE_UTC : 2015-05-07 07:17:49
_STATISTICS_TAGS : BPS DURATION NUMBER_OF_FRAMES NUMBER_OF_BYTES

Audio #1
ID : 2
Format : AC-3
Format/Info : Audio Coding 3
Mode extension : CM (complete main)
Format settings, Endianness : Big
Codec ID : A_AC3
Duration : 2h 7mn
Bit rate mode : Constant
Bit rate : 448 Kbps
Channel(s) : 6 channels
Channel positions : Front: L C R, Side: L R, LFE
Sampling rate : 48.0 KHz
Bit depth : 16 bits
Compression mode : Lossy
Stream size : 409 MiB (2%)
Title : VFQ AC3 5.1
Language : French
Default : Yes
Forced : No

Audio #2
ID : 3
Format : TrueHD
Codec ID : A_TRUEHD
Duration : 2h 7mn
Bit rate mode : Variable
Maximum bit rate : 8 955 Kbps
Channel(s) : 8 channels
Channel positions : Front: L C R, Side: L R, Back: L R, LFE
Sampling rate : 48.0 KHz
Compression mode : Lossless
Title : VO TRUEHD 7.1
Language : English
Default : No
Forced : No

Audio #3
ID : 4
Format : DTS
Format/Info : Digital Theater Systems
Mode : 16
Format settings, Endianness : Big
Codec ID : A_DTS
Duration : 2h 7mn
Bit rate mode : Constant
Bit rate : 1 510 Kbps
Channel(s) : 6 channels
Channel positions : Front: L C R, Side: L R, LFE
Sampling rate : 48.0 KHz
Bit depth : 24 bits
Compression mode : Lossy
Stream size : 1.35 GiB (7%)
Title : VO DTS 5.1
Language : English
Default : No
Forced : No

Text #1
ID : 5
Format : UTF-8
Codec ID : S_TEXT/UTF8
Codec ID/Info : UTF-8 Plain Text
Title : FR Forced
Language : French
Default : Yes
Forced : Yes

Text #2
ID : 6
Format : UTF-8
Codec ID : S_TEXT/UTF8
Codec ID/Info : UTF-8 Plain Text
Title : FR Complet
Language : French
Default : No
Forced : No

Text #3
ID : 7
Format : VobSub
Muxing mode : zlib
Codec ID : S_VOBSUB
Codec ID/Info : The same subtitle format used on DVDs
Title : Anglais Complet
Language : English
Default : No
Forced : No

Text #4
ID : 8
Format : PGS
Muxing mode : zlib
Codec ID : S_HDMV/PGS
Codec ID/Info : The same subtitle format used on BDs/HD-DVDs
Title : FR Forced
Language : French
Default : No
Forced : No

Text #5
ID : 9
Format : PGS
Muxing mode : zlib
Codec ID : S_HDMV/PGS
Codec ID/Info : The same subtitle format used on BDs/HD-DVDs
Title : FR Complet
Language : French
Default : No
Forced : No

Menu
00:00:00.000 : en:00:00:00.000
00:08:45.024 : en:00:08:45.024
00:19:31.170 : en:00:19:31.170
00:31:32.974 : en:00:31:32.974
00:41:42.542 : en:00:41:42.542
00:49:35.639 : en:00:49:35.639
00:58:29.631 : en:00:58:29.631
01:09:20.031 : en:01:09:20.031
01:19:07.201 : en:01:19:07.201
01:29:09.427 : en:01:29:09.427
01:36:08.513 : en:01:36:08.513
01:43:26.575 : en:01:43:26.575
01:52:58.772 : en:01:52:58.772
01:57:59.489 : en:01:57:59.489

Sources:
Jupiter.Ascending.2015.BluRay.1080p.AVC.TrueHD7.1-MTeam
Jupiter.Ascending.2015.1080p.3D.BluRay.Half-SBS.DTS.x264-HDAccess