Telecharger Jupiter : Le destin de l'Univers [BLURAY 720p] French

(TRUEFRENCH = Vraie voix française)

Qualité BLURAY 720p | TRUEFRENCH

Jupiter : Le destin de l'Univers

Jupiter : Le destin de l'Univers

Origine du film : Américain
Réalisateur : Andy Wachowski
Acteurs : Channing Tatum, Mila Kunis, Sean Bean
Genre : Science fiction, Aventure, Action
Durée : 2h7min
Date de sortie : 4 février 2015
Année de production : 2015
Titre Original : Jupiter Ascending
Distribué par : Warner Bros. France
Note presse : Jupiter : Le destin de l'Univers 3,0/5
Note spectateurs : Jupiter : Le destin de l'Univers

; »>2,7/5 (4 321)
Bande annonce :

1cb43ca2f7608b4f06cd7a5d96550d33

19550075″>Cliquez-ici pour voir la bande annonce 1cb43ca2f7608b4f06cd7a5d96550d33″> 19550075

1cb43ca2f7608b4f06cd7a5d96550d33

Jupiter : Le destin de l'Univers

Née sous un ciel étoilé, Jupiter Jones est promise à un destin hors du commun. Devenue adulte, elle a la tête dans les étoiles, mais enchaîne les coups durs et n’a d’autre perspective que de gagner sa vie en nettoyant des toilettes. Ce n’est que lorsque Caine, ancien chasseur militaire génétiquement modifié, débarque sur Terre pour retrouver sa trace que Jupiter commence à entrevoir le destin qui l’attend depuis toujours : grâce à son empreinte génétique, elle doit bénéficier d’un héritage extraordinaire qui pourrait bien bouleverser l’équilibre du cosmos…
87568″ style= »display:inline; »>

Jupiter : Le destin de l'Univers

Format : MKV
Sous-titres : Forcé pour les passages en langue étrangère.

Jupiter : Le destin de l'Univers

Jupiter.Ascending.2015.TRUEFRENCH.720p.BluRay.x264-Goatlove

(4470 Mo)

[Liens Interchangeables entre hébergeurs: 4x 1000 Mo + 1x 470 Mo]

Uptobox
Télécharger

Uplea
Télécharger

1fichier
Télécharger

Uploaded
Télécharger

Rapidgator
Télécharger

TurboBit
Télécharger

[Liens PREMIUM]

Uptobox
Télécharger

Uplea
Télécharger

1fichier
Télécharger

Uploaded
Télécharger

Rapidgator
Télécharger

TurboBit
Télécharger

NFO :

Afficher / Masquer le texte 084a621d68826ef38678102919155c6b » class= »text_spoiler » style= »display:none; »>General
Complete name : jupiter.ascending.2015.truefrench.720p.bluray.x264-goatlove.mkv
Format : Matroska
Format version : Version 2
File size : 4.37 GiB
Duration : 2h 7mn
Overall bit rate : 4 902 Kbps
Writing application : mkvmerge v6.6.0 (‘The Edge Of The In Between’) built on Dec 1 2013 17:55:00
Writing library : libebml v1.3.0 + libmatroska v1.4.1

Video
ID : 1
Format : AVC
Format/Info : Advanced Video Codec
Format profile : [email protected]
Format settings, CABAC : Yes
Format settings, ReFrames : 5 frames
Codec ID : V_MPEG4/ISO/AVC
Duration : 2h 7mn
Bit rate : 4 453 Kbps
Width : 1 280 pixels
Height : 536 pixels
Display aspect ratio : 2.40:1
Frame rate mode : Constant
Frame rate : 23.976 fps
Color space : YUV
Chroma subsampling : 4:2:0
Bit depth : 8 bits
Scan type : Progressive
Bits/(Pixel*Frame) : 0.271
Stream size : 3.88 GiB (89%)
Writing library : x264 core 146 r2538 121396c
Encoding settings : cabac=1 / ref=5 / deblock=1:0:0 / analyse=0x3:0x133 / me=umh / subme=8 / psy=1 / psy_rd=1.00:0.00 / mixed_ref=1 / me_range=16 / chroma_me=1 / trellis=1 / 8x8dct=1 / cqm=0 / deadzone=21,11 / fast_pskip=0 / chroma_qp_offset=-2 / threads=12 / lookahead_threads=2 / sliced_threads=0 / nr=0 / decimate=1 / interlaced=0 / bluray_compat=0 / constrained_intra=0 / bframes=3 / b_pyramid=2 / b_adapt=2 / b_bias=0 / direct=3 / weightb=1 / open_gop=0 / weightp=2 / keyint=250 / keyint_min=23 / scenecut=40 / intra_refresh=0 / rc_lookahead=50 / rc=2pass / mbtree=1 / bitrate=4453 / ratetol=1.0 / qcomp=0.60 / qpmin=0 / qpmax=69 / qpstep=4 / cplxblur=20.0 / qblur=0.5 / ip_ratio=1.40 / aq=1:1.00
Language : English
Default : Yes
Forced : No

Audio
ID : 2
Format : AC-3
Format/Info : Audio Coding 3
Mode extension : CM (complete main)
Format settings, Endianness : Big
Codec ID : A_AC3
Duration : 2h 7mn
Bit rate mode : Constant
Bit rate : 448 Kbps
Channel(s) : 6 channels
Channel positions : Front: L C R, Side: L R, LFE
Sampling rate : 48.0 KHz
Bit depth : 16 bits
Compression mode : Lossy
Stream size : 409 MiB (9%)
Title : French
Language : French
Default : Yes
Forced : No

Text
ID : 3
Format : UTF-8
Codec ID : S_TEXT/UTF8
Codec ID/Info : UTF-8 Plain Text
Title : French Forced
Language : frf
Default : Yes
Forced : Yes

Menu
00:00:00.000 : en:00:00:00.000
00:08:45.024 : en:00:08:45.024
00:19:31.170 : en:00:19:31.170
00:31:32.974 : en:00:31:32.974
00:41:42.542 : en:00:41:42.542
00:49:35.639 : en:00:49:35.639
00:58:29.631 : en:00:58:29.631
01:09:20.031 : en:01:09:20.031
01:19:07.201 : en:01:19:07.201
01:29:09.427 : en:01:29:09.427
01:36:08.513 : en:01:36:08.513
01:43:26.575 : en:01:43:26.575
01:52:58.772 : en:01:52:58.772
01:57:59.489 : en:01:57:59.489

Jeux Gratuit
15354131_1854970838071206_1069261547_o.png